<?xml version="1.0" standalone="no"?>
<!DOCTYPE svg PUBLIC "-//W3C//DTD SVG 1.1//EN" "http://www.w3.org/Graphics/SVG/1.1/DTD/svg11.dtd" >
<svg xmlns="http://www.w3.org/2000/svg">
<metadata>
Created by FontPrep 20130207 at Tue Jul  9 12:39:22 2013
 By Craig Ridgley
(c) 2000, 2001 Adobe Systems Incorporated. All Rights Reserved.
</metadata>
<defs>
<font id="66be995022d6f507f528f15386d1e64f" >
  <font-face 
    font-family="ACaslonPro-Regular"
    font-weight="400"
    font-stretch="normal"
    units-per-em="2048"
    panose-1="2 0 5 3 0 0 0 0 0 0"
    ascent="1505"
    descent="-543"
    x-height="860"
    cap-height="1456"
    bbox="-158 -563 2326.45 1896"
    underline-thickness="102"
    underline-position="-102"
    unicode-range="U+0020-00FF"
  />
<missing-glyph horiz-adv-x="500" 
 />
    <glyph glyph-name=".notdef" horiz-adv-x="500" 
 />
    <glyph glyph-name=".null" horiz-adv-x="0" 
 />
    <glyph glyph-name="nonmarkingreturn" horiz-adv-x="682" 
 />
    <glyph glyph-name="space" unicode=" " horiz-adv-x="520" 
 />
    <glyph glyph-name="exclam" unicode="!" horiz-adv-x="520" 
d="M166 1290q0 34 28 72t73 37q45 0 73 -31q30 -27 27 -90q0 -2 -35 -354t-39 -488q0 -14 -14 -14h-37q-15 0 -15 20q-3 109 -32 461q-29 353 -29 387zM273 -25q-46 0 -90 28t-44 93q0 34 30 74q31 40 89 41q58 0 90 -35q35 -30 35 -85t-35 -83q-29 -33 -75 -33z" />
    <glyph glyph-name="quotedbl" unicode="&#x22;" horiz-adv-x="757" 
d="M449 1395q0 86 95 86t95 -84q0 -15 -29 -201t-32 -252h-68q-2 44 -32 234t-29 217zM121 1395q0 86 95 86t95 -84l-59 -453h-70q-3 56 -32 243q-29 188 -29 208z" />
    <glyph glyph-name="numbersign" unicode="#" 
d="M993 856h-215l-67 -317h227q29 0 23 -17l-21 -82q-3 -10 -25 -10h-227l-90 -436q-6 -25 -20 -25h-93q-15 0 -8 23l92 438h-223l-92 -428q-6 -33 -21 -33h-92q-14 0 -8 29l94 432h-231q-18 0 -12 19l20 75q3 15 23 15h223l65 317h-213q-20 0 -24 4q-7 0 -4 10l16 80
q3 15 27 15h221l92 415q3 19 16 19h91q14 0 8 -21l-86 -413h221l86 415q10 19 20 19h91q13 0 10 -23l-86 -411h223l16 -2q4 -8 2 -13l-18 -80q-3 -14 -31 -14zM592 539l65 317h-221l-67 -317h223z" />
    <glyph glyph-name="dollar" unicode="$" 
d="M758 342q0 187 -133 252l-13 -477q61 24 105 80q41 59 41 145zM449 643l-15 -526q18 -18 111 -15l12 514q-11 2 -47 12t-61 15zM281 1010q0 -80 41 -140q14 -25 37 -37q23 -11 26 -14l8 416q-112 -57 -112 -225zM561 768l12 471q-50 26 -108 14l-12 -458q23 -12 108 -27z
M594 -88h-39q-14 0 -14 20l2 101q-61 -6 -111 8l-4 -111q0 -18 -14 -18h-41q-15 0 -15 20l4 125q-45 14 -102 60q-30 22 -44 22q-14 -1 -28 -25t-36 -24t-19 27q1 6 3.5 28t7 57.5t12.5 129.5t10 100q0 14 14 14l31 -2q12 0 12 -14q3 -118 51 -191t91 -96l14 523
q-80 24 -135 79q-97 94 -97 238t127 256q51 48 121 70l4 116q0 21 15 21h41q14 0 14 -21l-2 -106q49 6 108 -4l3 110q0 21 14 21h41q14 0 14 -25l-4 -118q29 -7 63 -21t48 -2l20 20q16 13 30 13t15 -31q0 -158 6 -281q0 -11 -10 -14l-29 -6q-9 0 -12 6q-21 128 -86 187
l-43 36l-16 -456q262 -77 262 -351q0 -121 -77 -228t-204 -134l-2 -109q0 -20 -14 -20z" />
    <glyph glyph-name="percent" unicode="%" horiz-adv-x="1536" 
d="M1188 840q87 0 145 -41q57 -35 94 -109t48 -135q17 -63 20 -143q-3 -202 -82 -318q-83 -112 -215 -112q-99 0 -160 47q-104 71 -136 255q-10 60 -11 109q0 187 76 317t221 130zM1182 778q-148 0 -148 -350q0 -192 37 -285q21 -48 59 -74t68 -26q92 0 119 84q29 95 29 274
q0 377 -164 377zM372 -31q-6 1 -35 17q-30 16 -30 24t10 25l832 1347q11 17 17 17t36 -17q30 -18 31 -24q0 -6 -8 -19l-832 -1343q-15 -27 -21 -27zM338 1399q81 0 145 -39q62 -44 92 -104t52 -142q16 -89 18 -143q-3 -207 -84 -316q-77 -114 -213 -114q-93 0 -160 45
q-107 83 -137 254q-10 58 -10 112q0 187 76 317t221 130zM332 1337q-148 0 -148 -350q0 -192 37 -285q21 -46 60 -73t67 -27q92 0 119 84q29 95 29 275q0 376 -164 376z" />
    <glyph glyph-name="ampersand" unicode="&#x26;" horiz-adv-x="1689" 
d="M762 1158q0 76 -48 147t-120 71q-70 0 -131 -73q-57 -75 -57 -168t208 -222q84 65 116 117t32 128zM582 92q79 0 155 39q53 32 70 43q17 12 51 46t42 41q6 7 28 31t28 32.5t9 12.5t4 5q-242 338 -451 459q-122 -67 -200 -175t-76 -231q3 -123 110 -211q106 -92 230 -92z
M74 343q0 276 403 501q-103 59 -158 129t-55 127q0 116 117 233q121 117 223 117t195 -90q87 -90 84 -195q-3 -75 -75 -158t-151 -124q105 -54 227 -168t206 -232q56 74 128 183t74 143q4 34 -14 53t-49 19h-35q-14 0 -14 14v45q0 10 22 10t72 -4l119 -2q49 0 82 2l129 4
q14 0 14 -14v-43q0 -14 -14 -14h-35q-74 0 -103 -10q-28 -10 -70 -74q-42 -63 -134 -193t-132 -174q144 -160 156 -172q148 -154 277 -154q79 0 143 60t82 100q7 11 16 2l31 -18q13 -7 -24 -63t-87 -109q-111 -105 -270 -105q-78 0 -192 56q-95 67 -179 178q-46 61 -57 76
t-12 16q-123 -150 -185 -201q-149 -125 -318 -125t-304 97q-133 100 -133 277z" />
    <glyph glyph-name="quotesingle" unicode="'" horiz-adv-x="421" 
d="M117 1395q0 86 95 86t95 -84l-59 -453h-70q-2 44 -32 234t-29 217z" />
    <glyph glyph-name="parenleft" unicode="(" horiz-adv-x="675" 
d="M123 564q0 292 137 583q88 194 270 369q20 14 34 14t30 -9t16 -24t-18 -33q-330 -345 -330 -879t332 -872q16 -22 16 -34t-14 -23q-17 -10 -32 -10t-34 16q-200 188 -288 369q-119 241 -119 533z" />
    <glyph glyph-name="parenright" unicode=")" horiz-adv-x="675" 
d="M553 612q0 -292 -137 -583q-92 -200 -271 -367q-19 -16 -33 -16t-32 10q-14 11 -14 24t18 31q330 345 330 879t-332 872q-16 22 -16 36t16 23t29 9q14 0 34 -14q205 -196 289 -371q119 -241 119 -533z" />
    <glyph glyph-name="asterisk" unicode="*" horiz-adv-x="671" 
d="M401 889q1 -72 -65 -72t-66 72q0 3 60 246h-4q-6 -4 -82 -80t-97 -90q-63 -40 -97 15t30 95q11 7 125 43q112 31 119 31v4q-4 1 -103 25t-136 38q-38 15 -46 37q-11 22 4 56q30 58 98 20q24 -14 103 -86t82 -80l4 4q0 1 -3.5 12t-7 24.5t-8.5 38t-23 88.5t-18 83
q0 68 66 68t65 -68q0 -25 -28 -129q-16 -74 -31 -119l4 -4q11 17 93 93t91 81q57 29 91 -22q34 -58 -27 -92q-22 -13 -132 -41t-112 -27v-4q207 -51 250 -72q66 -31 28 -91t-104 -19q-20 12 -98 88t-80 84l-4 -4q15 -45 31 -119q28 -101 28 -127z" />
    <glyph glyph-name="plus" unicode="+" 
d="M575 82h-122v352h-338v115h338v352h122v-352h334v-115h-334v-352z" />
    <glyph glyph-name="comma" unicode="," horiz-adv-x="520" 
d="M240 236q54 0 114 -56t60 -134q0 -79 -31 -151.5t-83 -128.5t-74 -73t-52 -39q-40 -19 -41 -19q-24 -1 -24 17t18 33q145 133 145 258q0 17 -11 37t-33 28t-35 16q-72 45 -72 99q0 55 31 86q34 27 88 27z" />
    <glyph glyph-name="hyphen" unicode="-" horiz-adv-x="827" 
d="M106 498v90q0 14 19 14h573q23 0 23 -22v-78q0 -15 -25 -15h-571q-19 -3 -19 11z" />
    <glyph glyph-name="period" unicode="." horiz-adv-x="520" 
d="M270 -25q-46 0 -88 28q-42 29 -43 79q0 50 29 90t87 39q58 0 92 -34t34 -87t-33 -84q-32 -31 -78 -31z" />
    <glyph glyph-name="slash" unicode="/" horiz-adv-x="716" 
d="M4 33l610 1440q9 18 27 12l66 -27q17 -7 8 -28l-613 -1442q-10 -27 -26 -17l-70 35q-11 6 -2 27z" />
    <glyph glyph-name="zero" unicode="0" 
d="M524 43q132 0 197 145q63 135 63 553q0 241 -76 413t-198 171q-122 0 -186 -123q-82 -158 -82 -553q0 -291 69 -432q81 -174 213 -174zM522 -31q-113 0 -211 64q-93 69 -143 165q-105 203 -105 416q0 350 130 566q128 219 327 219q106 -1 193 -65t138 -165t83 -231
q27 -135 27 -242q1 -347 -119 -537t-320 -190z" />
    <glyph glyph-name="one" unicode="1" 
d="M530 0l-54 -1l-256 -5h-7q-16 0 -16 16v51q0 13 28 13h94q97 0 119 16q20 17 23 98q2 18 2 478v358q-3 115 -49 115q-22 0 -82 -17l-144 -47q-17 -3 -20 6l-16 37q-6 16 12 25l424 243q23 13 28 13q15 0 15 -29l-2 -98q-4 -132 -4 -506v-86q0 -88 2 -242v-243
q3 -85 24 -101q17 -20 119 -20h74q20 0 20 -17v-47q0 -16 -18 -16h-2h-28l-128 2q-98 4 -158 4z" />
    <glyph glyph-name="two" unicode="2" 
d="M201 0q-54 0 -166 -8q-17 0 -25 14t8 29l105 96q215 197 336 328q261 279 252 512q-3 135 -79 213t-186 76q-118 0 -192 -80q-54 -68 -80 -116q-12 -22 -27 -13l-28 12q-10 6 0 29q126 307 409 307q137 1 248 -103t111 -254t-60 -268q-55 -122 -194 -276
q-71 -80 -121 -126t-121 -107q-72 -61 -94.5 -80t-37 -31t-17.5 -15h415q104 0 154 57t84 115q13 23 37 10t16 -28l-133 -320q-4 -8 -4 -13t-4 -9h-23q-17 1 -28 25t-111 24h-444z" />
    <glyph glyph-name="three" unicode="3" 
d="M379 -31q-165 0 -236 52q-71 51 -71 101t20 74t42 23q22 0 40 -8q28 -12 40 -54l9 -28q41 -84 184 -84t224 84q84 81 84 213t-87 231q-87 100 -154.5 111t-70.5 12q-17 16 -20 27q0 23 25 29q106 21 186 99t80 184t-58 173q-61 64 -151 64q-190 0 -272 -223
q-3 -11 -9 -17t-12 -4l-37 8q-8 3 -2 31q23 122 125 227q106 105 258 105q152 1 228 -85t77 -184q0 -212 -229 -352q117 -28 207 -131q92 -100 92 -227q1 -193 -151 -322t-361 -129z" />
    <glyph glyph-name="four" unicode="4" 
d="M643 508v563q0 26 -12 29q-13 3 -27 -17l-377 -520q-40 -55 15 -55h401zM768 0h-102q-25 0 -25 23v360h-571q-31 0 -31 25q0 15 20 41l666 917q23 33 45 33q27 0 27 -62v-819h166q24 0 24 -16v-99q0 -20 -33 -20h-157v-354q-1 -17 -5 -23t-24 -6z" />
    <glyph glyph-name="five" unicode="5" 
d="M322 -31q-111 0 -189 35t-78 80q0 20 13 39q14 14 40 14t92 -40q65 -40 175 -40q109 0 209 92t100 224q0 237 -180 313q-123 54 -266 45q-25 -3 -38 4t-10 23l74 577q3 21 8 27t25 6h438q61 0 91 42q10 14 34 60q10 17 25 11q28 -16 28 -21v-4l-73 -205q-7 -18 -25 -32
q-18 -9 -63 -9h-426l-37 -329q31 2 111 -5q249 -22 354 -159q84 -97 84 -240q3 -215 -150 -362q-155 -146 -366 -146z" />
    <glyph glyph-name="six" unicode="6" 
d="M760 381q0 145 -67 241t-181 95q-154 0 -203 -101q-45 -80 -45 -223q0 -107 37 -213q23 -66 84 -106q53 -39 147 -39t160 84q24 32 46 101t22 161zM504 -31q-189 0 -283 113q-131 140 -131 377q0 414 311 719q136 133 301 198q57 23 79 23q22 1 22 -21t-19 -32
q-159 -73 -301 -240q-149 -166 -184 -395q107 94 272 94q115 0 207 -64q156 -122 156 -297q0 -135 -34 -213t-93 -139q-114 -123 -303 -123z" />
    <glyph glyph-name="seven" unicode="7" 
d="M399 1368h576q20 0 20 -16q1 -16 -9 -32t-95 -176t-170 -362q-213 -489 -277 -708q-30 -105 -102 -105q-35 0 -59 21q-21 25 -21 59q0 33 38 113q47 101 219.5 430t322.5 625h-486q-19 0 -29 -2t-28.5 -4t-29.5 -8q-11 -7 -22 -11t-22 -17q-11 -12 -17 -17t-11 -15
l-17 -21q0 -2 -14 -22t-24 -33t-29 -1t-20 14t3 20l127 330q5 14 29 14t29 -8t2 -30t17 -30t99 -8z" />
    <glyph glyph-name="eight" unicode="8" 
d="M528 1315q-108 1 -178 -75t-69 -167q0 -150 120 -233q40 -30 156 -99q81 53 145 139t68 190t-65 174.5t-177 70.5zM469 616q-205 -114 -205 -334q0 -112 80 -176q76 -67 186 -67t170 63q66 60 66 187q0 50 -21 108q-43 80 -155 151q-42 26 -121 68zM913 330
q-1 -132 -115 -246t-298 -115q-184 0 -275 88q-90 90 -90 211q0 120 65 210t201 177q-280 157 -280 351q0 149 117 272q121 121 321 121q138 0 244 -80q104 -82 104 -184q0 -145 -59 -235t-223 -202q134 -63 211 -149q77 -87 77 -219z" />
    <glyph glyph-name="nine" unicode="9" 
d="M510 1333q-98 0 -178 -92q-76 -95 -76 -245t74 -245.5t180 -95.5q148 0 207 117q31 67 31 203q0 358 -238 358zM490 1399q124 0 192 -34q69 -34 136 -108q66 -75 90 -169t24 -162q0 -475 -334 -770q-136 -119 -295 -172q-47 -15 -63 -15q-31 0 -31 29q0 20 18 29
q167 66 314 235q152 169 182 402l-2 4q-107 -101 -250 -101q-195 0 -287 121t-92 289q0 61 48 163t104 152q122 107 246 107z" />
    <glyph glyph-name="colon" unicode=":" horiz-adv-x="520" 
d="M270 643q-46 0 -88 28q-42 29 -43 79q0 50 29 90t87 39q58 0 92 -34t34 -87t-33 -84q-32 -31 -78 -31zM270 -25q-46 0 -88 28q-42 29 -43 79q0 50 29 90t87 39q58 0 92 -34t34 -87t-33 -84q-32 -31 -78 -31z" />
    <glyph glyph-name="semicolon" unicode=";" horiz-adv-x="520" 
d="M350 760q0 -56 -33 -86q-33 -31 -78 -31t-87 28q-42 29 -43 79t29 90t90 39q60 0 87 -35q35 -28 35 -84zM240 236q54 0 114 -56t60 -134q0 -79 -31 -151.5t-83 -128.5t-74 -73t-52 -39q-40 -19 -41 -19q-24 -1 -24 17t18 33q145 133 145 258q0 17 -11 37t-33 28t-35 16
q-72 45 -72 99q0 55 31 86q34 27 88 27z" />
    <glyph glyph-name="less" unicode="&#x3c;" 
d="M809 82l-637 379v65l637 375v-135l-453 -262v-10l453 -273v-139z" />
    <glyph glyph-name="equal" unicode="=" 
d="M115 401h794v-114h-794v114zM115 711h794v-115h-794v115z" />
    <glyph glyph-name="greater" unicode="&#x3e;" 
d="M215 901l637 -379v-65l-637 -375v135l453 262v10l-453 273v139z" />
    <glyph glyph-name="question" unicode="?" horiz-adv-x="757" 
d="M283 -25q-47 0 -81 30q-34 31 -34 77t31 82q31 31 80 31t81 -35q35 -30 35 -74t-33 -77.5t-79 -33.5zM295 594v-219q0 -15 -14 -15h-39q-15 0 -15 15v387q0 24 29 18q28 -6 98 -6t116 12t88 52t42 98q0 98 -111 184q-75 62 -123 80t-112 19q-63 1 -106 29q-42 28 -42 71
q0 33 31 56q31 24 68 24q135 1 308 -177t173 -358q0 -61 -27 -125q-10 -17 -32 -43q-25 -18 -41 -31t-46 -23t-38 -12q-9 -4 -37.5 -10t-48.5 -6t-68 -4h-37q-16 0 -16 -16z" />
    <glyph glyph-name="at" unicode="@" horiz-adv-x="1609" 
d="M700 -31q-292 0 -467 158q-170 159 -170 404q1 245 135 467t347 350q208 133 453 133t388 -146q142 -148 142 -384t-164 -412q-159 -179 -418 -179q-29 0 -53 21q-23 23 -23 47q0 59 72 244l-8 4q-78 -112 -200 -214t-228 -102q-43 0 -74 31t-31 88q0 126 95 291
q100 161 233 270q142 109 243 109t136 -72l27 39q8 14 20 14h78q19 0 10 -20q-1 -2 -16.5 -38t-53.5 -123.5t-79 -184.5q-86 -195 -86 -283q0 -41 59 -41q104 0 219 142q117 138 117 366q-1 228 -117 344q-116 115 -320 115q-204 -1 -381 -127q-176 -126 -274 -317
q-96 -197 -96 -392q0 -245 145 -385q146 -140 386 -138t374 85l27 -51q-52 -49 -178 -78q-120 -35 -269 -35zM956 1090q-80 0 -179 -106t-165 -243q-66 -136 -67 -212q0 -76 49 -76q80 1 217 145t184 237t47 142t-22 81t-64 32z" />
    <glyph glyph-name="A" unicode="A" horiz-adv-x="1521" 
d="M717 1276q-11 0 -19 -20t-106 -281.5t-117 -331.5h453q-46 153 -195 604q-13 29 -16 29zM299 119q0 -45 70 -45h96q20 0 20 -15v-47q0 -18 -16 -18h-4h-13l-65 2q-53 4 -151 4h-115q-78 -6 -100 -6q-23 0 -23 16v49q0 15 16 15h72q43 0 70 20q30 27 73 128t121 315
q78 215 138 375t86.5 231t38 102t20.5 59t-4 50q-15 18 -15 28t30 18t86 42q55 34 73 59q19 19 26 19q15 0 31 -58t108 -330t128 -390t104 -316q70 -198 98 -260q47 -92 140 -92h67q17 0 17 -15v-51q0 -14 -21 -14h-3h-12l-61 2q-47 4 -174 4t-186 -4l-98 -2q-17 0 -17 18
v47q0 15 19 15h51q41 0 57 16q13 16 4 62q-30 135 -129 417h-503q-150 -388 -150 -450z" />
    <glyph glyph-name="B" unicode="B" horiz-adv-x="1351" 
d="M944 1098q0 294 -381 293q-61 0 -67 -2q-29 -10 -29 -37q-4 -110 -4 -389v-152q54 -4 108 -4q181 0 258 53q115 86 115 238zM463 741v-409q0 -145 47 -209q46 -64 178 -64q132 -1 226 77t94 249q0 121 -56 203t-146 118t-278 35h-65zM74 6v53q0 15 18 15h98q48 0 60 18
q16 16 24 90t9 467v242q0 233 -5 340t-32 125q-23 20 -103 20h-63q-17 0 -17 15v51q0 14 17 14h4h14l74 -2q62 -4 154 -4t153 4l133 2q269 0 363 -55q158 -87 158 -279q0 -138 -56 -200q-52 -64 -194 -138l6 -4q332 -108 332 -405q-1 -85 -47 -175t-111 -132
q-121 -74 -391 -74l-174 2q-63 4 -143 4t-146 -4l-107 -2q-28 0 -28 12z" />
    <glyph glyph-name="C" unicode="C" horiz-adv-x="1527" 
d="M836 -31q-312 0 -519 189q-103 98 -161 256t-58 317q0 322 209 543q86 92 219 147q132 60 293 60q222 0 414 -113q35 -21 41 0l16 59q2 13 22 13t24 -7t3 -17q0 -10 21 -195q30 -209 32 -219t-10 -13l-30 -8q-15 -3 -21 16q-67 158 -160 254q-155 158 -356 158
q-130 -1 -233 -55q-102 -54 -164 -150t-88 -202q-26 -108 -27 -224q1 -116 47 -262t150 -258q89 -102 179 -137t233 -35q142 0 278 77t209 183q8 14 16 6l27 -20q10 -10 4 -19q-237 -344 -610 -344z" />
    <glyph glyph-name="D" unicode="D" horiz-adv-x="1665" 
d="M481 887v-146q0 -161 4 -501q0 -62 35 -115q51 -66 208 -66q157 1 283 59t208 163q149 183 149 460q0 116 -47 243t-121 210q-182 197 -514 197q-130 1 -165 -21t-37 -88t-3 -395zM59 8v53q0 13 17 13h137q60 0 66 49q14 95 14 663v154q0 284 -10 379q-3 36 -25 45
q-18 12 -63 12h-113q-16 0 -16 15v55q0 10 16 10t41 -2l258 -4q70 0 156 4l149 2q228 0 387 -40t279 -144q227 -196 227 -522q0 -318 -187 -522q-86 -94 -173 -142q-135 -76 -336 -88q-78 -4 -144 -4l-202 2q-88 4 -175 4h-143q-102 -6 -145 -6q-15 0 -15 14z" />
    <glyph glyph-name="E" unicode="E" horiz-adv-x="1413" 
d="M274 0l-161 -6q-19 0 -19 14v55q0 11 21 11h82q73 0 86 16q16 13 16 74v686q0 384 -6 441t-27 69q-19 16 -78 16h-73q-17 0 -17 15v55q0 10 15 10l92 -2q55 -4 160 -4h393q135 2 305 2l47 2q48 2 51 -8q3 -16 53 -172t53 -165q2 -8 -7 -11l-31 -17q-11 -7 -16 5t-87 110
q-82 99 -118 125q-76 52 -156 55l-365 8v-600q285 0 325 40t46 163q0 14 14 14l52 -2q14 0 10 -25q-4 -24 -4 -166t12 -271q0 -14 -12 -17l-45 -6q-5 -2 -13 2q0 20 -27 114q-20 70 -87 79q-105 10 -271 10v-127l5 -350q3 -139 116 -160q66 -14 167 -14t187 9t156 68
q10 8 82 97q73 97 86 117t25 14l32 -19q13 -10 5 -28l-109 -301q-9 -31 -45 -31q-8 0 -20 2h-62q-29 2 -116 2t-226 2h-496z" />
    <glyph glyph-name="F" unicode="F" horiz-adv-x="1224" 
d="M113 -6q-13 0 -13 14v55q0 11 15 11h92q35 0 55 8q14 10 20 60t5 628v143l-4 404q0 59 -84 59h-119q-14 0 -14 13v55q0 12 12 12t31 -2h55q126 -4 552 -4t449 8q30 -175 82 -364q4 -11 -4 -15l-37 -14q-6 -1 -23 29t-124 174q-53 74 -137 94t-445 20q0 -83 -2 -245v-420
q201 0 253 8q52 7 73 27t30 51t23 115q3 14 14 14l41 -2q13 0 13 -15q-4 -45 -4 -189t10 -257q0 -13 -15 -16l-39 -9q-10 -3 -14 11v4q-2 26 -22 100q-21 71 -84 80q-94 12 -279 12v-305q2 -128 2 -188t15 -72t65 -12h100q19 0 19 -13v-51q0 -16 -16 -16t-37 2l-242 4h-131
q-96 -6 -137 -6z" />
    <glyph glyph-name="G" unicode="G" horiz-adv-x="1675" 
d="M860 -31q-156 -1 -314 57t-259 177q-189 213 -189 563q0 144 60 282t172 238q230 195 575 195q122 0 236 -38t168 -81q29 -22 47 2l30 37q18 18 29 18q19 0 19 -24l6 -391q0 -19 -10 -19l-37 -4q-14 0 -17 16q-42 141 -110 225q-151 185 -386 185t-391 -166
q-180 -189 -180 -471q0 -387 195 -573q152 -146 363 -146t333 70q37 21 46 61t9 119v152q0 54 -18 75q-19 19 -66 19h-86q-14 0 -14 12v51q0 17 12 17l88 -4q59 -2 157 -2t134 2l123 4q17 0 17 -15v-49q0 -16 -15 -16h-80q-63 0 -63 -78v-270l8 -66q0 -22 -33 -33
q-256 -131 -559 -131z" />
    <glyph glyph-name="H" unicode="H" horiz-adv-x="1746" 
d="M633 -6q-132 6 -262 6t-187 -4l-94 -2q-14 0 -14 14v53q0 13 14 13h121q57 0 57 98q6 290 6 547v88l-4 436q0 78 -16 107q-17 26 -74 26h-96q-12 0 -12 17v49q0 14 16 14h4h14l74 -2q58 -4 188 -4l55 1l219 5h5q21 0 21 -10v-53q0 -17 -17 -17h-104q-52 0 -66 -24
t-14 -92l-4 -414v-35q0 -16 24 -16h758q25 -1 33 5t8 25v21q0 10 -4 248l-2 178q0 58 -13 81t-55 23h-106q-14 0 -14 15v53q0 12 12 12l100 -2q57 -4 176 -4t256 6q17 0 17 -16v-49q0 -15 -17 -15h-92q-41 0 -53 -22t-12 -86l-4 -451v-69q0 -222 6 -572q0 -58 18 -80t64 -22
h90q18 0 18 -15v-49q0 -16 -16 -16q-132 6 -263 6t-192 -4l-108 -2q-13 0 -13 14v51q0 15 17 15h129q37 0 49 31t12 563v28q0 17 -8 21q-16 4 -37 4h-749q-29 0 -29 -21v-43q0 -134 4 -514q3 -69 65 -69h101q16 0 16 -15v-51q0 -14 -16 -14z" />
    <glyph glyph-name="I" unicode="I" horiz-adv-x="759" 
d="M475 664l1 -86l2 -213l3 -218q0 -45 23 -59q17 -14 74 -14h84q16 0 16 -15v-53q0 -12 -18 -12t-42 2l-243 4h-158q-108 -6 -136 -6t-28 12v55q0 13 17 13h114q83 0 92 59q11 93 11 582v143q0 340 -8 449q-3 40 -25 53q-19 16 -78 16h-119q-16 0 -16 13v55q0 12 17 12
t44 -2l273 -4l235 4q24 2 40 2t16 -14v-51q0 -15 -17 -15h-96q-72 0 -72 -57v-3l-1 -44l-1 -201q-4 -158 -4 -250v-157z" />
    <glyph glyph-name="J" unicode="J" horiz-adv-x="679" 
d="M258 823q0 395 -4 459t-26 79q-21 15 -76 15h-91q-14 0 -14 10v56q-1 14 15 14t36 -2l103 -2q45 -2 153 -2l236 4q20 2 38 2t19 -12v-51q0 -17 -16 -17h-103q-42 0 -57 -14t-18 -45q-7 -116 -7 -543v-94l-8 -508q0 -214 -74 -340t-174 -204t-208 -77q-40 0 -91 31
q-49 28 -49 80t31 80q35 27 85 27q50 -1 96 -31q48 -30 63 -78q78 24 112 129q18 53 27 187t6 253l-4 451v143z" />
    <glyph glyph-name="K" unicode="K" horiz-adv-x="1458" 
d="M274 874l-1 78l-5 365v10q0 49 -61 49h-72q-16 0 -16 15v53q1 12 17 12t34 -2l205 -4l194 4q18 2 36 2t18 -12v-53q0 -15 -15 -15h-86q-31 0 -44 -13t-13 -50v-9l-1 -30l-1 -160q-4 -129 -4 -252v-102h37q42 0 84 28q28 22 223 263q217 276 225 288q8 13 2 27t-26 14h-29
q-10 0 -10 15v47q0 14 12 14h4h11l61 -2q47 -4 113 -4t104 4l65 2q15 0 15 -10v-55q0 -15 -17 -15h-43q-60 0 -112 -40t-230 -238q-178 -200 -248 -293q17 -17 181 -223q163 -205 237 -296t101 -124.5t30 -36.5q39 -51 144 -51h71q15 0 15 -15v-51q1 -14 -15 -14t-39 2
l-215 4h-137q-102 -6 -141 -6q-12 0 -12 12v53q0 13 12 13h31q25 0 34 18q8 20 -7 48q-14 28 -200 274q-186 245 -202 256q-38 30 -90 30h-39v-147q0 -346 6 -432q3 -45 47 -45h90q16 0 16 -13v-53q0 -14 -14 -14t-33 2l-196 4h-129q-84 -6 -108 -6t-23 14v53q0 13 14 13h84
q46 0 55 37q6 56 6 645v118z" />
    <glyph glyph-name="L" unicode="L" horiz-adv-x="1355" 
d="M1221 -6q-105 6 -863 6h-104q-41 -2 -71 -2t-42 -2h-28q-6 -2 -17 -2q-16 0 -16 14v51q0 15 14 15h99q88 0 88 55v3l1 54l1 248q4 197 4 369v115q-1 274 -5 352t-20 90q-13 16 -57 16h-96q-15 0 -15 21v45q0 14 15 14t38 -2l228 -4l264 4q25 2 41 2t16 -16v-47
q0 -17 -20 -17h-123q-44 0 -58 -16t-14 -59q0 -44 -2 -103l-4 -381v-176q0 -479 6 -561q40 -2 251 -4q210 -2 264 6t118 78q108 130 154 264q6 11 16 8l33 -12q7 -4 4 -19q-20 -44 -100 -407z" />
    <glyph glyph-name="M" unicode="M" horiz-adv-x="2009" 
d="M315 1450l33 1l138 5h3q39 0 54 -35l454 -1093q17 22 121 260t146 324q40 86 132 290t96 226q2 22 46 22l326 4q25 2 38 2t13 -14v-47q0 -19 -17 -19h-90q-44 0 -56 -20t-11 -86q0 -64 -4 -193l-2 -274v-144l2 -262q4 -133 4 -204t14 -95t55 -24h121q15 0 15 -15v-47
q0 -18 -19 -18q-13 0 -31 2l-256 4h-149q-102 -6 -145 -6q-17 0 -17 18v47q0 15 17 15h139q30 0 42 14q11 14 15 69q4 56 4 523v131q0 500 -6 518h-4q-12 -15 -60 -121t-101 -220t-105 -231t-58 -123q-4 -6 -46 -102t-119 -277q-78 -181 -80 -183q-21 -49 -39 -49t-33 36
q-2 5 -50.5 125t-138.5 340t-90 221q-232 559 -254 578q-12 -43 -12 -541t6 -572q6 -76 24.5 -106t68.5 -30h102q14 0 14 -15v-51q-1 -14 -17 -14t-34 2l-215 4h-139q-113 -8 -140 -4q-4 4 -4 16v49q0 13 13 13h108q55 0 78 32t31 91q30 181 30 649t-6 487q0 33 -32 39
q-20 4 -48 4h-124q-15 0 -15 15v53q-1 12 13 12t34 -2z" />
    <glyph glyph-name="N" unicode="N" horiz-adv-x="1628" 
d="M508 -6q-205 9 -309 2l-95 -2q-10 0 -10 14v53q0 13 12 13h70q45 0 66 24q18 25 26 97t8 641v348q0 90 -38 139q-39 48 -97 51l-84 2q-12 0 -12 15v53q1 12 11 12t22 -2h37q82 -4 145 -4l137 4q36 0 60 -27q7 -13 191 -249q184 -234 212 -272t39.5 -52t37.5 -45t57 -71
t132.5 -163.5t178.5 -222.5h8v244q0 609 -31 700q-24 80 -113 80h-65q-12 0 -12 15v53q0 12 12 12h4h12l60 -2q47 -4 145 -4l41 1l159 5h3q16 0 16 -14v-51q0 -15 -12 -15h-55q-43 0 -60 -26q-17 -31 -23 -120t-5 -439v-766q0 -50 -11 -50q-26 0 -49 33q-1 1 -63.5 81
t-275.5 345t-219 270t-131 160t-175 218t-74.5 93.5t-28.5 36.5h-12v-454q0 -596 43 -658q12 -26 53 -26h62q16 0 16 -19v-45q0 -16 -16 -16z" />
    <glyph glyph-name="O" unicode="O" horiz-adv-x="1681" 
d="M1081 98q100 48 155 120q54 72 100 194t46 280t-53 298t-135 228t-176 136.5t-182 48.5q-9 0 -21 2h-31q-5 -1 -36 -3.5t-62 -13.5q-106 -38 -174 -106q-99 -96 -152 -234t-53 -281q1 -143 41 -271t102 -210t140 -138q140 -102 268 -101q127 0 223 51zM840 -31
q-225 0 -441 133q-125 76 -213 238t-88 371q0 278 191 510q211 260 555 260q267 0 459 -162q280 -244 280 -612q0 -243 -153 -449q-217 -289 -590 -289z" />
    <glyph glyph-name="P" unicode="P" horiz-adv-x="1243" 
d="M630 705q108 0 187 40q78 40 126 105q48 66 48 182q0 205 -141 291q-68 38 -126 53t-140 15t-123 -15v-653q61 -18 169 -18zM1204 1057q0 -195 -137 -307t-383 -111q-131 0 -223 10v-106q0 -325 5 -397t66 -72h132q16 0 16 -15v-49q0 -16 -18 -16t-39 2l-246 4h-144
q-102 -6 -128.5 -6t-26.5 14v51q0 15 12 15h88q55 0 71 13q15 13 21 69t6 561v235q0 325 -4 366q-4 42 -17 50q-14 8 -62 8h-117q-13 0 -13 17v49q-1 14 13 14t39 -2l252 -4q43 0 100 4l125 2q185 0 272 -22q93 -17 174 -73t124 -136q42 -80 42 -168z" />
    <glyph glyph-name="Q" unicode="Q" horiz-adv-x="1669" 
d="M842 35q122 0 214 51t148 127q54 67 93 159q69 163 69 327q0 165 -48 312t-135 231q-89 84 -177 124q-88 41 -195 41q-195 0 -328 -133q-178 -178 -178 -508q-1 -186 65 -335t154 -234q168 -162 318 -162zM2102 -268q24 0 40 2h23q70 0 127 45q12 12 18 2l14 -21
q7 -10 -6 -20q-166 -166 -274 -166q-166 0 -524 90t-809 299l-31 8q-83 26 -108 39q-118 57 -181 113q-33 25 -94 86q-199 202 -199 541q0 145 64 290q127 287 424 394q135 50 237 47q336 5 545 -213t203 -523q3 -151 -55 -301q-60 -141 -156 -237q-154 -153 -356 -221v-9
q295 -107 749 -198q24 -4 59.5 -10.5t59.5 -10.5t38 -6t55 -7t77 -9t60 -4z" />
    <glyph glyph-name="R" unicode="R" horiz-adv-x="1427" 
d="M469 1309v-580q36 -8 92 -8q136 0 225 41q91 36 140 98q80 114 80 216q0 50 -27 116q-27 65 -76 104q-121 95 -340 95q-42 0 -69 -17q-25 -19 -25 -65zM377 1450q132 0 342 6q252 0 383 -125q106 -100 106 -233q0 -190 -88 -275q-85 -88 -291 -135v-4q50 -17 95 -78
q28 -32 102 -139t84 -125t80 -116q70 -96 110 -124t138 -28q16 0 16 -17v-45q0 -18 -14 -18t-29 2l-133 4q-74 0 -166 -6q-16 13 -86 117q-92 152 -115 195t-89 140t-103 135q-74 74 -182 74q-41 0 -68 -6v-114q0 -299 4 -381q9 -80 51 -80h129q17 0 17 -17v-45q0 -8 -4 -16
q-12 -2 -22 -2t-30 2l-235 4h-141q-84 -6 -108 -6t-24 16v47q0 17 11 17h84q80 0 80 69q4 270 4 590v199q0 303 -2 342q-3 102 -78 102h-82q-12 0 -12 15v51q-1 14 13 14t32 -2z" />
    <glyph glyph-name="S" unicode="S" horiz-adv-x="1122" 
d="M915 1430l29 -318q0 -16 -10 -20l-25 -7q-9 -3 -12 7q-37 131 -123 223t-219 92q-133 1 -195 -73t-61 -178q0 -104 68 -172t199 -109t167 -56q41 -11 101 -47t92 -76q90 -110 90 -290t-112 -308q-112 -129 -304 -129q-191 0 -328 107q-34 24 -46 24t-30 -30t-42 -29
q-23 0 -17 33q17 176 26 260t9 110q3 13 14 13l31 -2q12 0 12 -17q3 -128 74 -237q49 -75 123 -111q72 -41 170 -41t186 66q86 68 86 201t-82 212q-90 76 -268 140t-264 153q-102 102 -102 299q0 141 127 262q105 99 286 99q137 0 242 -51q25 -12 39 2l26 24q15 12 29 12
t14 -38z" />
    <glyph glyph-name="T" unicode="T" horiz-adv-x="1437" 
d="M399 -6q-18 0 -18 20v39q0 21 14 21h140q60 0 67 49q6 59 6 727v526h-51q-245 0 -324 -24q-90 -27 -182 -238q-6 -13 -20 -10l-37 10q-11 3 -8 16q80 288 96 361q3 33 20 33t25 -8l27 -19q43 -32 116 -35q326 -12 387 -12h99q110 0 411 12q65 3 107 29l39 25q13 8 24 8
q16 0 19 -33l59 -369q3 -13 -12 -16l-33 -8q-9 -3 -16 14q-82 198 -150 231t-350 33h-57v-583q0 -614 2 -637q6 -82 69 -82h129q21 0 21 -21v-43q0 -16 -18 -16t-37 2l-252 4h-158q-108 -6 -154 -6z" />
    <glyph glyph-name="U" unicode="U" horiz-adv-x="1527" 
d="M1325 950q0 -316 -10 -463q-18 -262 -172 -395q-132 -123 -385 -123q-176 0 -277 43q-190 75 -243 275q-33 118 -33 497v488q0 56 -16 80t-62 24h-96q-15 0 -15 19v45q0 16 18 16t44 -2l237 -4l238 4q25 2 43 2t18 -12v-53q0 -15 -16 -15h-102q-43 0 -70 -24
q-26 -26 -30 -68t-3 -258v-135q0 -69 10 -434q3 -166 66 -260q103 -148 315 -148q212 1 318 113t106 360v439q0 229 -6 297q-11 117 -96 118h-90q-15 0 -15 17v49q1 14 17 14t39 -2l211 -4l194 4q16 2 34 2t17 -14v-45q0 -21 -12 -21h-84q-17 0 -21 -2t-10 -3.5l-10 -2.5
t-8.5 -4.5t-8.5 -5.5q-3 -2 -7 -9q-4 -8 -9 -10l-4 -12q-10 -15 -12 -38t-2 -339z" />
    <glyph glyph-name="V" unicode="V" horiz-adv-x="1445" 
d="M1472 1456q14 0 13 -14v-51q0 -15 -15 -15h-55q-80 0 -145 -80q-41 -53 -252 -571l-154 -385q-144 -353 -152 -367t-24 -14t-33 47q-163 464 -258 729l-20 70q-165 489 -172 504q-27 67 -84 67h-53q-11 0 -11 15v51q1 14 15 14t34 -2l213 -4l242 4q25 2 43 2t19 -14v-47
q0 -19 -17 -19h-98q-86 0 -86 -53q0 -34 8 -70q17 -101 125 -432q88 -286 190 -555h5q52 126 120 304.5t96.5 252.5t63.5 183q38 119 67 203t29 120q0 47 -65 47h-53q-11 0 -11 19v47q1 14 15 14t37 -2l202 -4l191 4q16 2 30 2z" />
    <glyph glyph-name="W" unicode="W" horiz-adv-x="2140" 
d="M454 1456q15 0 15 -12v-51q0 -17 -16 -17h-35q-81 0 -60 -73l330 -1037h4q47 140 182 538t139 443t-26 87t-86 42h-51q-12 0 -12 17v49q0 14 14 14t33 -2l217 -4l233 4q23 2 37 2t14 -14v-51q0 -15 -14 -15h-82q-35 0 -53 -24q-13 -29 -4 -58l319 -1028h4
q320 933 320 1047q0 63 -72 63h-55q-14 0 -14 19v47q1 14 17 14t34 -2l184 -4l162 4q16 2 30 2t13 -14v-51q0 -15 -14 -15h-50q-51 0 -81 -55q-1 -3 -78 -208t-154 -414.5t-118 -319.5t-136 -367q-24 -53 -43 -53q-30 0 -45 45l-379 1124h-4q-2 -5 -33.5 -96t-175.5 -491
q-184 -526 -194 -543q-17 -39 -43 -39t-35 33l-457 1311q-27 73 -88 73h-70q-12 0 -12 17v49q1 14 15 14t32 -2l189 -4l213 4q25 2 40 2z" />
    <glyph glyph-name="X" unicode="X" horiz-adv-x="1427" 
d="M892 -6q-26 0 -26 14v51q0 15 13 15h79q29 0 46 10q12 10 6 24t-156 262q-150 247 -184 294q-313 -441 -336 -498q-38 -92 39 -92h80q16 0 16 -13v-49q0 -18 -15 -18t-38 2l-230 4h-104q-84 -6 -117 -6q-12 0 -12 18v47q0 15 12 15h80q47 0 119 62t258 319
q202 270 205 274q-390 579 -424 613t-97 34h-90q-10 0 -10 17v47q0 16 10 16q16 0 41 -2l250 -4l271 4q25 2 40 2t15 -14v-47q0 -19 -19 -19h-71q-65 0 -75 -32t15 -64q204 -343 256 -416q58 73 170 230q119 160 139 194t10 60q-10 28 -50 28h-43q-13 0 -13 19v47
q0 14 16 14t38 -2l184 -4l172 4q18 2 34 2t17 -14v-47q0 -19 -12 -19h-86q-47 0 -79 -22t-210 -243q-177 -222 -240 -310q4 -3 112 -173t218 -332q109 -162 113 -167q61 -55 135 -55h68q16 0 16 -15v-49q0 -16 -14 -16t-35 2l-228 4h-139q-114 -6 -140 -6z" />
    <glyph glyph-name="Y" unicode="Y" horiz-adv-x="1361" 
d="M1394 1456q14 0 15 -12v-49q0 -19 -16 -19h-52q-55 0 -97 -42t-488 -685v-268q0 -157 6 -219t26 -74q21 -14 66 -14h80q14 0 14 -15v-47q0 -18 -15 -18t-40 2l-236 4h-143q-96 -6 -127 -6q-12 0 -12 16v49q0 15 14 15h100q69 0 72 51q6 86 6 381v119q-35 71 -215 369
t-217 340t-100 42h-51q-15 0 -15 15v53q-1 12 15 12t39 -2l200 -4l269 4q23 2 37 2t14 -10v-51q0 -19 -15 -19h-67q-47 0 -57 -15t-6 -45q6 -30 69 -140q55 -109 151 -280t101 -181q26 37 121 184q103 149 174 268q73 115 76 129q14 26 2 53t-70 27h-55q-15 0 -15 19v49
q0 12 16 12t36 -2l204 -4l160 4q12 2 26 2z" />
    <glyph glyph-name="Z" unicode="Z" horiz-adv-x="1437" 
d="M1321 1462q27 0 27 -14q4 -11 -13 -35q-67 -78 -470 -634t-452 -623.5t-57 -81.5h721q46 28 143 136t144 167q8 7 18 4l29 -16q9 -7 -5 -35t-68 -158q-54 -129 -68 -180q-7 -23 -27 -23q-6 0 -25 3t-26 5q-192 23 -633 23h-432q-39 0 -39 16q0 27 12 39q77 91 518 701
t451 628h-555q-44 0 -78 -29t-130 -146t-124 -162q-7 -11 -18 -3l-27 13q-7 5 -4 18l129 369q9 22 25 22q5 0 70 -8q66 -8 526 -8h69q78 6 152 6q111 6 217 6z" />
    <glyph glyph-name="bracketleft" unicode="[" horiz-adv-x="724" 
d="M207 1530h420q12 0 12 -12v-50q0 -16 -16 -16h-277q-20 0 -20 -22v-1678q0 -28 14 -28h303q16 0 16 -19v-43q0 -16 -18 -16h-432q-23 0 -23 22v1843q0 19 21 19z" />
    <glyph glyph-name="backslash" unicode="\" horiz-adv-x="716" 
d="M709 0l-76 -31q-4 -2 -12 2q-6 6 -13 23l-604 1438q-7 16 4 20l78 33q11 5 20 -10l607 -1450q9 -22 -4 -25z" />
    <glyph glyph-name="bracketright" unicode="]" horiz-adv-x="724" 
d="M516 -354h-432q-18 0 -18 16v43q0 19 16 19h305q12 0 12 24v1682q0 22 -18 22h-279q-16 0 -16 16v50q0 12 12 12h420q21 0 21 -19v-1843q0 -22 -23 -22z" />
    <glyph glyph-name="asciicircum" unicode="^" 
d="M47 532l432 867h66l434 -867h-133l-336 672h-10l-326 -672h-127z" />
    <glyph glyph-name="underscore" unicode="_" 
d="M0 -256v102h1024v-102h-1024z" />
    <glyph glyph-name="grave" unicode="`" horiz-adv-x="684" 
d="M128 1323q48 0 87 -51l197 -244q3 -8 -2 -10l-25 -23q-6 -6 -12 0l-271 193q-52 40 -36 88q14 48 62 47z" />
    <glyph glyph-name="a" unicode="a" horiz-adv-x="874" 
d="M539 199v252q-33 -19 -109 -57t-122 -87q-44 -49 -44 -114t30 -93t76 -28q48 0 109 43q60 48 60 84zM697 -25q-111 0 -142 138h-4q-66 -78 -203 -125q-44 -13 -121 -13q-43 0 -83 40t-40 130q0 160 205 248q198 87 232 119v131q-9 91 -29 115q-38 45 -124 45t-132 -43
q-14 -14 -14 -27q-4 -7 0 -35t4 -32q0 -117 -109 -117q-49 1 -49 59t41 112t100 87q123 72 239 72t175 -56q45 -45 45 -145v-434q0 -154 62 -154q49 0 71 31q11 14 21 8l20 -16q13 -13 -2 -37q-52 -101 -163 -101z" />
    <glyph glyph-name="b" unicode="b" horiz-adv-x="1032" 
d="M295 440q0 -212 31 -297q14 -39 73 -69q56 -33 121 -33q106 0 193 84q82 85 82 256t-81 285t-215 114t-204 -73v-267zM147 348v756q0 100 -19 136t-77 54l-20 6q-27 9 -27 17v16q0 7 16 17q149 66 198 98q50 32 66 33q16 -1 14 -23t-3 -444v-238q48 45 127 76
q86 27 156 27q146 0 260 -116t114 -310t-127 -336t-288 -142t-252 54l-82 -45q-13 -10 -27 -7l-24 7q-11 4 -8 28t3 336z" />
    <glyph glyph-name="c" unicode="c" horiz-adv-x="841" 
d="M467 813q-96 1 -169 -83t-73 -243t105 -303q79 -104 223 -104q76 0 125 20q48 20 100 68q8 8 17 0l20 -21q12 -12 0 -26q-48 -57 -139 -101t-191 -45q-203 0 -317 144q-92 125 -92 297t123 318t315 145q68 0 133 -19q61 -23 87 -48q60 -56 59 -99q-3 -72 -73 -72t-116 82
q-30 59 -62 75t-75 15z" />
    <glyph glyph-name="d" unicode="d" horiz-adv-x="1067" 
d="M743 246v352q0 66 -18 100q-59 111 -215 111q-115 0 -186 -74q-95 -103 -95 -268t90 -287q91 -117 181 -117t152 35q64 36 78 76t13 72zM891 784v-452q0 -161 20 -187q28 -31 78 -34t53 -15l5 -16q3 -16 -15 -23l-231 -77q-21 -6 -27 16l-26 90q-50 -50 -137 -80
t-155 -31q-68 1 -86 3t-67 22t-111 82q-62 61 -90 135q-26 74 -26 184q0 206 143 349q120 129 305 129q114 0 219 -31v399q1 61 -21 83t-108 38q-14 3 -14 14v35q0 12 16 15q56 12 125 22q77 16 95 18t28 7l25 2q13 0 10 -37q-8 -123 -8 -660z" />
    <glyph glyph-name="e" unicode="e" horiz-adv-x="872" 
d="M561 606q55 0 55 28q0 89 -59 144q-36 39 -103 39t-125 -52t-85 -159h317zM741 545h-505q-7 -31 -7 -99q0 -148 84 -249q81 -103 207 -103q89 0 156 42t92 97q6 14 18 11l27 -15q12 -3 0 -30q-35 -78 -121 -154q-86 -70 -205 -70q-218 0 -321 146q-54 79 -72 147t-18 176
q0 197 119 316t303 119q80 0 144 -34t95 -87q62 -116 62 -180q0 -34 -58 -33z" />
    <glyph glyph-name="f" unicode="f" horiz-adv-x="634" 
d="M76 -6q-25 0 -25 14v45q0 15 21 15h98q26 0 36 16t13 55v617h-141q-13 0 -10 22l8 62q3 14 24 14h119v39q-1 271 141 429t332 159q77 0 131 -31q56 -27 56 -84q0 -32 -29 -60t-60 -28t-54 12t-57 54q-34 40 -87 40q-95 0 -154 -71q-36 -49 -52 -131t-18 -122
q-1 -38 -1 -165v-41h247q21 0 15 -20l-11 -68q-3 -10 -26 -10h-225v-183q0 -438 2 -456t12 -37q12 -12 41 -12h117q22 0 22 -17v-33q1 -24 -13 -24t-32 2l-215 4h-104q-96 -6 -121 -6z" />
    <glyph glyph-name="g" unicode="g" horiz-adv-x="993" 
d="M506 -492q97 0 205 54q104 55 98 157q0 96 -74 152t-223 47l-197 -14q-55 -14 -109 -68t-54 -129q0 -38 23 -79q23 -42 56 -62q52 -36 115 -47t160 -11zM444 293q82 0 128 89t46 211t-55 183q-45 45 -98 45q-89 0 -146 -57q-73 -76 -73 -242q0 -107 65 -178
q51 -51 133 -51zM29 -336q0 154 215 256v8q-60 16 -99 56t-39 96t59 109t126 77v4q-73 33 -132 110q-59 78 -59 196t96 210t255.5 92.5t257.5 -118.5q115 80 192 80q47 0 73 -26t24 -59t-23 -55t-57 -22t-72 31q-26 18 -54 18t-55 -12q31 -79 31 -156q0 -133 -76 -221
q-43 -46 -113 -74t-127 -28t-102 10q-28 -10 -76 -45q-32 -32 -32 -62t8 -43q16 -39 110 -39h54q10 1 32.5 2t34.5 2q243 12 353 -73q94 -70 100 -197q0 -151 -136 -249t-341 -99q-206 0 -324 65q-104 64 -104 156z" />
    <glyph glyph-name="h" unicode="h" horiz-adv-x="1103" 
d="M53 14v37q0 17 31 17h43q62 0 68 32q6 40 6 398v618q1 90 -19 120t-80 52l-34 12q-15 3 -15 13v18q0 5 25 21l213 112q39 17 47 17q22 1 16 -51t-6 -553v-132h10q52 62 129 99q81 35 152 35q121 0 203 -82q41 -38 62 -95q22 -57 24 -87t2 -119v-117l4 -281q0 -30 76 -30
h34q23 0 23 -19v-31q-1 -24 -15 -24t-30 2l-168 4h-88q-72 -6 -98 -6t-25 22v35q0 17 14 17h48q74 0 77 38v369q0 97 -13 154t-62 106t-127 49q-114 0 -191 -86q-41 -50 -41 -100v-446q0 -56 9 -70t36 -14h62q22 0 22 -17v-35q1 -22 -15 -22t-36 2l-160 4h-90
q-78 -6 -100 -6t-23 20z" />
    <glyph glyph-name="i" unicode="i" horiz-adv-x="546" 
d="M238 1114q-46 0 -83 30q-38 30 -38 74t35 76q29 33 84 33q56 1 84 -31t28 -71t-31 -78q-33 -33 -79 -33zM76 -6q-22 0 -23 16v41q0 17 21 17h100q30 0 33 41q2 41 2 186v301q0 52 -21 84q-24 27 -94 39q-18 3 -18 14v19q0 8 14 14q113 43 180 78t80.5 35.5t9.5 -35.5
t-4 -324v-223q0 -162 2 -176q6 -53 33 -53h94q21 0 21 -19v-35q0 -20 -19 -20q-13 0 -36 2l-160 4h-103q-90 -6 -112 -6z" />
    <glyph glyph-name="j" unicode="j" horiz-adv-x="503" 
d="M362 1240q0 -54 -36 -90t-87 -36q-50 0 -89 33t-39 83t40 90q39 40 89 40t86 -33t36 -87zM199 150v405q-1 67 -19 93t-82 50l-20 9q-12 3 -12 14v18q0 7 16 17q115 37 221 108q17 15 37 15t13 -34t-7 -349v-256q0 -298 -32 -459t-126 -249t-221 -89q-50 0 -84 27
q-35 27 -35 60t21 64q25 31 53 31q60 0 117 -63q28 -31 47 -31q87 0 102 180q11 183 11 439z" />
    <glyph glyph-name="k" unicode="k" horiz-adv-x="1015" 
d="M68 -6q-11 0 -11 20v35q0 19 21 19h76q36 0 36 49q5 302 5 381v678q1 70 -19 99t-88 46q-29 10 -29 14v19q0 11 27 20l209 90q43 17 45 17q15 0 12 -35q-10 -110 -10 -645v-324q68 -1 95 19t111 108t109 123q17 35 1 47t-54 12q-16 0 -16 19v39q0 16 14 16l98 -4
q30 -2 90 -2t87 2l81 4q13 0 13 -20v-37q0 -17 -17 -17h-14q-70 0 -141 -47q-49 -25 -271 -241q388 -388 420 -402q61 -28 107 -28q16 0 16 -19v-37q0 -18 -18 -18q-13 0 -29 2l-141 4h-105q-84 -6 -108.5 -6t-24.5 20v33q0 16 21 16h14q29 0 21 32q-4 16 -123 138
q-97 108 -148 158q-30 23 -88 23v-90q0 -166 2 -211t41 -45h59q19 0 19 -17v-35q0 -22 -17 -22q-10 0 -28 2l-154 4h-94q-72 -6 -102 -6z" />
    <glyph glyph-name="l" unicode="l" horiz-adv-x="524" 
d="M25 14v35q0 19 26 19h99q42 0 44 47t3 538v129q0 292 -5 366t-28 97q-24 30 -76 45l-41 15q-12 3 -12 10v16q0 9 18 15q195 90 231 112t54 23q18 0 14 -37q-8 -401 -8 -651v-183q0 -436 2 -479q3 -63 53 -63h93q22 0 22 -19v-35q0 -20 -12 -20t-35 2l-197 4h-110
q-90 -6 -121 -6q-14 0 -14 20z" />
    <glyph glyph-name="m" unicode="m" horiz-adv-x="1650" 
d="M662 -6q-20 0 -21 20v33q0 5 2 16q10 5 19 5h59q45 0 45 34v422q0 163 -61 221q-40 37 -132 37q-124 0 -196 -118q-29 -50 -29 -138v-405q0 -53 41 -53h74q5 0 16 -2q4 -8 4 -17v-33q-1 -22 -15 -22t-30 2l-157 4h-93q-72 -6 -93 -6t-21 18v37q0 9 4 17q14 2 20 2h70
q28 0 31 51q2 23 2 106v365q0 74 -58 104l-43 23q-14 8 -14 16v17q0 10 12 16l181 92q25 12 41 12t16 -28l8 -119h6q45 63 128 109t173 47q161 0 232 -158h10q51 66 133 112t186 46t166 -62q34 -37 49 -53t33 -72q18 -55 17 -127v-456q0 -41 43 -41h55q22 0 22 -19v-35
q1 -20 -13 -20t-28 2l-143 4h-90q-73 -6 -95 -6t-22 20v35q0 19 27 19h51q38 0 41 38q4 62 4 166v303q0 117 -57 162t-131 45q-73 0 -125 -32t-76 -74q-29 -60 -29 -207v-354q0 -47 41 -47h70q22 0 22 -19v-33q0 -22 -12 -22t-28 2l-156 4h-94q-72 -6 -92 -6z" />
    <glyph glyph-name="n" unicode="n" horiz-adv-x="1089" 
d="M80 12v37q0 19 20 19h60q22 0 33 8q8 12 8 33v479q0 80 -84 121l-17 8q-16 6 -16 18v10q0 12 18 21l177 98q27 15 39 15t14 -25l14 -125h4q46 57 125 103t172 47q93 0 158 -45q41 -26 77 -90t36 -105v-528q0 -43 45 -43h65q23 0 23 -19v-33q0 -22 -17 -22q-12 0 -28 2
l-166 4h-88q-72 -6 -97 -6q-16 0 -16 22v33q0 19 27 19h59q38 0 41 47q4 144 4 172v270q0 91 -15 127q-15 34 -54 64t-134 30t-172 -80q-47 -53 -47 -139v-424q0 -39 8 -55q12 -12 41 -12h52q20 0 20 -21v-35q1 -18 -13 -18t-28 2l-152 4h-88q-66 -6 -87 -6t-21 18z" />
    <glyph glyph-name="o" unicode="o" horiz-adv-x="1019" 
d="M511 37q122 0 194 119q71 124 71 284t-88 269q-88 108 -184 108q-94 0 -155 -64q-61 -65 -85 -135t-24 -170t14 -174q19 -66 63 -131q72 -106 194 -106zM948 434q0 -180 -135 -320t-321 -139q-186 0 -308 142q-72 87 -92 156t-20 168q0 200 176 339q126 99 274 99
q80 0 159 -35t128 -84q139 -146 139 -326z" />
    <glyph glyph-name="p" unicode="p" horiz-adv-x="1052" 
d="M330 205q0 -82 43 -109q76 -55 205 -55q97 -1 167 83t70 272t-78 288q-72 100 -188 100q-68 0 -123 -34q-56 -31 -96 -97v-448zM46 -563q-16 0 -17 18v37q0 19 24 19h80q25 0 31 12q10 12 14 49t4 346v662q0 35 -14 63q-23 27 -59 47l-48 27q-14 6 -14 18v17q0 8 14 14
l197 98q39 17 50 17t11 -41l9 -99h6q108 138 299 138q126 0 233 -101q60 -60 86 -131t25 -188q0 -201 -125 -344q-131 -140 -317 -140q-121 0 -205 35v-432q0 -40 9 -54t36 -13h90q18 0 18 -21v-35q0 -18 -18 -18l-27 2l-184 4l-176 -4q-16 -2 -32 -2z" />
    <glyph glyph-name="q" unicode="q" horiz-adv-x="1040" 
d="M504 813q-122 0 -197 -113q-74 -118 -74 -218q0 -161 58 -267q31 -47 51 -70q74 -86 180 -86q68 0 128 28t89 65v473q-9 97 -84 141q-73 47 -151 47zM596 -563q-16 0 -16 18v41q0 15 22 15h84q43 -1 48 41t5 471v51h-4q-132 -99 -293 -99q-128 0 -234 81q-58 44 -96 134
q-36 90 -36 198t47 217.5t127 174.5q114 99 270 99q110 0 244 -45l108 45q14 3 19 -2l18 -15q6 -6 -1 -36q-21 -88 -21 -433v-467q0 -203 10 -356q3 -59 43 -59h64q20 0 20 -13v-45q0 -16 -14 -16t-35 2l-164 4l-184 -4q-15 -2 -31 -2z" />
    <glyph glyph-name="r" unicode="r" horiz-adv-x="698" 
d="M61 -6q-12 0 -12 20v35q0 19 23 19h80q45 0 45 38q2 45 2 246v193q0 78 -15 102q-15 30 -59 53l-39 21q-16 6 -16 14v13q0 8 16 18l203 104q15 9 29 9t14 -25l10 -141h8q48 72 114 125t125 53t83 -27q28 -25 28 -66q0 -42 -27 -70t-53 -28t-60 16t-73 17q-73 0 -120 -86
q-21 -37 -21 -65v-430q0 -48 12 -66t45 -18h97q14 0 14 -19v-37q0 -18 -12 -18t-31 2l-184 4h-109q-84 -6 -117 -6z" />
    <glyph glyph-name="s" unicode="s" horiz-adv-x="729" 
d="M344 -25q-128 0 -211 60q-9 3 -12 28l-35 195q-3 13 12 16l27 7q12 3 18 -13l52 -100q13 -25 41 -70q47 -57 122 -57q76 0 125 37q52 34 52 104t-44 114t-155 73q-242 70 -242 260q0 104 85 177t195 73t195 -43q34 -15 37 -37l31 -144q0 -12 -14 -18l-25 -8q-8 -3 -18 10
l-70 94q-53 80 -143 80q-64 -1 -111 -37t-47 -95t37 -106q9 -9 49 -30q23 -8 39 -15t103.5 -29t149.5 -82q61 -60 64 -173q-3 -125 -91 -198t-216 -73z" />
    <glyph glyph-name="t" unicode="t" horiz-adv-x="653" 
d="M254 33q-61 57 -61 137t6 272v45q0 31 4 261h-125q-31 0 -31 24q0 16 37 38t126 114q89 94 107 143q9 20 29 20t21 -30l-11 -203h285q23 0 14 -18l-20 -72q-3 -16 -19 -16h-264q-6 -141 -6 -287v-205q0 -103 35 -141q29 -39 72 -39q96 0 135 26q14 9 24 -4l11 -18
q9 -9 -13 -31t-78 -45q-58 -29 -136 -29t-142 58z" />
    <glyph glyph-name="u" unicode="u" horiz-adv-x="1036" 
d="M788 854q32 0 50 6h10q21 0 18 -20q-12 -111 -12 -273v-151q0 -184 5 -249t52 -65q40 0 65 6t28 -8l6 -26q3 -15 -11 -19l-215 -71q-24 -9 -40 -9t-19 25l-16 119h-4q-45 -63 -124 -103t-155 -41q-122 0 -193 95q-57 74 -68 144t-11 257v238q-2 42 -22 58t-60 19t-41 15
v37q0 16 22 16h183q22 0 40 6h11q25 0 22 -24q-8 -65 -8 -236v-145q0 -29 -3 -87t13 -141q10 -39 35 -80q53 -77 164 -77q43 0 92 32q56 32 84 70q21 24 21 55v488q-3 36 -23 53q-24 14 -68 16t-43 17v35q0 6 5 16q14 2 20 2h190z" />
    <glyph glyph-name="v" unicode="v" horiz-adv-x="886" 
d="M184 854q74 0 113 2l59 4q21 0 21 -16v-37q0 -21 -15 -21h-40q-37 0 -37 -55t89 -290t99 -253h6q177 430 197 514t-37 84h-41q-8 0 -8 21v37q0 16 18 16t51 -4l107 -2l96 2q32 4 48 4t20 -4q2 -6 2 -14v-35q0 -21 -10 -21h-39q-43 0 -63 -20t-78 -140t-76 -162
q-16 -42 -28 -69.5t-36.5 -83t-77.5 -175.5l-53 -120q-27 -47 -51 -47t-41 43q-102 254 -148 383q-45 129 -63.5 176.5t-41.5 110.5t-48 88q-19 16 -47 16h-41q-13 0 -13 21v37q0 16 23 16l84 -4q26 -2 100 -2z" />
    <glyph glyph-name="w" unicode="w" horiz-adv-x="1404" 
d="M936 834v-43q0 -17 -14 -17h-43q-15 0 -25 -16t-4 -37l156 -498h8l166 451q19 56 8 84q-6 28 -39 28h-29q-12 0 -12 17v43q0 14 14 14l84 -4q25 -2 74 -2l98 2q30 4 48 4t18 -14v-43q0 -17 -14 -17h-52q-44 0 -62 -29t-315 -761q-9 -27 -36 -27t-39 39l-201 584h-10
l-252 -590q-14 -33 -43 -33q-20 0 -35 41l-268 721q-21 55 -86 55h-45q-15 0 -15 19v39q-1 16 17 16t57 -4l125 -2l109 2q37 4 58 4t21 -16v-41q0 -17 -16 -17h-18q-43 0 -25 -55l162 -543h8l209 500q-6 50 -20 68t-54 18h-31q-14 0 -14 14v43q0 17 19 17l98 -4q27 -2 83 -2
t79 2l80 4q18 0 18 -14z" />
    <glyph glyph-name="x" unicode="x" horiz-adv-x="897" 
d="M526 -6q-24 0 -24 18v35q0 21 16 21h31q18 0 24 18q3 20 -12 47l-147 236q-2 -5 -44 -60t-86 -121q-45 -66 -51 -78t0 -27t25 -15h43q10 0 10 -17v-41q0 -16 -14 -16l-53 2q-70 4 -107 4h-80q-54 -6 -75 -6t-21 18v37q0 19 16 19h54q60 0 85 25t98 117t117 148.5t48 61.5
q-167 255 -242 338q-22 28 -74 28h-57q-14 0 -14 15v41q0 18 16 18l86 -4q27 -2 83 -2t85 2l105 4q12 0 12 -18v-39q0 -17 -12 -17h-19q-24 0 -24 -20q-3 -21 16 -49l127 -201l156 205q15 17 9 41t-32 24h-25q-12 0 -12 15v43q0 16 10 16l54 -4q35 -2 101 -2t83 2l55 4
q19 0 19 -20v-37q0 -17 -17 -17h-32q-50 0 -81 -24t-251 -297q187 -276 254 -354q37 -43 90 -43h33q10 0 10 -17v-41q1 -16 -13 -16t-26 2l-133 4h-96q-73 -6 -97 -6z" />
    <glyph glyph-name="y" unicode="y" horiz-adv-x="892" 
d="M930 860q12 0 12 -16v-39q0 -19 -10 -19h-33q-46 0 -72 -36q-43 -56 -285 -604t-255 -574t-20 -36q-48 -69 -85 -81q-28 -12 -76 -12q-48 1 -78 29t-30 68t28 64t65 23q37 0 57 -8t41 -14.5t40 12.5q21 27 83 163t81 187q-5 30 -115 358t-128 375q-18 36 -25 48t-27 25
t-45 13h-53q-16 0 -16 19v41q0 14 16 14l92 -4q29 -2 96 -2l125 2q43 4 63 4t21 -14v-43q0 -17 -12 -17h-39q-32 0 -28 -38t74 -264t95 -283h9q20 37 112 255t99 253q18 77 -35 77h-33q-14 0 -14 17v41q0 16 17 16t52 -4l111 -2l76 2q29 4 49 4z" />
    <glyph glyph-name="z" unicode="z" horiz-adv-x="888" 
d="M104 0q-36 0 -12 35l526 758h-217q-97 0 -145 -33t-176 -191q-14 -17 -23 -8l-26 12q-10 7 -4 21l135 287q44 -11 98 -19q91 -8 268 -8h283q15 0 20 -10q9 -8 -2 -19l-542 -762h291q115 0 280 220q10 16 27 6l20 -15q12 -9 4 -20l-157 -279q-74 25 -365 25h-283z" />
    <glyph glyph-name="braceleft" unicode="{" horiz-adv-x="724" 
d="M86 612q0 36 27 35q33 1 67 11t54 52q18 42 18 91t-35 198q-37 136 -37 213q0 140 110 222t251 92q59 4 95 4t36 -29q0 -37 -25 -37q-155 0 -241 -78q-66 -63 -66 -160t16 -221t17 -159q0 -100 -58 -158q-28 -35 -49 -49q-18 -18 -18 -31t8 -18q6 -8 28 -30t35 -40
q54 -60 54 -155q-1 -22 -17 -153t-16 -220q0 -214 244 -273q31 -8 73 -8q15 -1 15 -33t-15 -32q-107 0 -165 14q-43 6 -102 30q-124 52 -181 154q-29 66 -29 138t37 204q35 149 35 195q0 183 -139 192q-27 3 -27 39z" />
    <glyph glyph-name="bar" unicode="|" horiz-adv-x="716" 
d="M403 -532h-86q-12 0 -12 20v2054q0 19 12 19h82q15 0 15 -25v-2048q0 -20 -11 -20z" />
    <glyph glyph-name="braceright" unicode="}" horiz-adv-x="724" 
d="M639 604q-1 -36 -31 -35q-30 -1 -64 -11t-52 -52t-19 -90q0 -49 37 -185q35 -146 35 -227q-1 -154 -111 -248t-252 -106q-54 -4 -92 -4t-37 30q0 35 25 35q51 0 65 2q106 11 174 87t68 178q-1 102 -17 239t-16 154q0 98 56 157q18 22 30 32t15 13l13 13t11 23q0 13 -8 18
q-7 9 -31 32t-35 37q-51 60 -51 156q0 13 16 148t17 196q0 111 -78 179t-166 83q-43 6 -69 6q-19 0 -19 33t17 33q47 0 65 -2q87 -3 172 -33q83 -23 161 -99t77 -186q0 -62 -36 -196t-36 -178q0 -129 66 -170q30 -20 71 -23q29 -3 29 -39z" />
    <glyph glyph-name="asciitilde" unicode="~" 
d="M799 633h108q1 -131 -59 -209t-134 -78t-179 68l-80 55q-68 45 -136 45q-34 0 -65 -39q-29 -47 -29 -125h-108q-1 132 59 210t144 77q84 0 163 -49l86 -58q7 -2 26 -16t32 -22q41 -23 78 -23t65 39q29 47 29 125z" />
    <glyph glyph-name="uni00A0" unicode="&#xa0;" horiz-adv-x="520" 
 />
    <glyph glyph-name="exclamdown" unicode="&#xa1;" horiz-adv-x="520" 
d="M367 -448q0 -35 -28 -72q-29 -37 -73 -37q-44 -1 -74 29t-26 92q0 4 36 357t38 485q0 14 14 14h37q14 0 14 -21q2 -87 32 -449t30 -398zM273 643q-46 0 -90 28t-44 93q0 34 30 74q31 40 89 41q58 0 90 -35q35 -30 35 -85t-35 -83q-29 -33 -75 -33z" />
    <glyph glyph-name="cent" unicode="&#xa2;" 
d="M526 -31h-53q-15 0 -12 33l10 221q-171 20 -274 148q-97 126 -97 289t109 296q106 137 301 158l10 203q0 20 15 20h53q12 0 12 -28l-8 -189q154 -5 231 -67q58 -66 58 -97q-3 -65 -73 -65t-112 82q-38 68 -108 74l-33 -725q45 -5 95 -5q106 0 206 95q8 8 16 0l21 -21
q12 -12 0 -26q-50 -56 -143 -101t-199 -45l-10 -221q-3 -29 -15 -29zM252 741q0 -125 27 -193t77 -128t121 -80l31 707q-104 -5 -180 -93t-76 -213z" />
    <glyph glyph-name="sterling" unicode="&#xa3;" 
d="M57 537h181q23 42 63.5 170.5t59.5 184.5t61 178t164 228q122 101 236 101t178 -48q63 -49 63 -85t-23 -62q-25 -19 -55 -22q-86 0 -123 75q0 10 -18 46q-25 28 -64 28q-75 0 -125 -74q-50 -63 -87 -207t-109 -308q-72 -163 -101 -205h287q19 0 19 -13v-47q0 -14 -21 -14
h-319q-48 -92 -142 -199l2 -4q148 15 236 -16t178 -135q62 -68 145 -68q33 -1 59 21t34 44t5 28q-4 7 -45 7t-71 21q-29 24 -29 48t23 52t78 27q55 0 98 -36.5t43 -96.5t-66 -124t-202 -63q-166 0 -285 140q-87 106 -231 100q-1 -1 -15 -28t-28 -50q-15 -23 -18 -28
q-23 -39 -59 -71t-73 -32t-37 40t59 110t119 100q19 18 56 92q38 74 53 121h-150q-18 0 -18 14v47q0 13 14 13z" />
    <glyph glyph-name="currency" unicode="&#xa4;" 
d="M754 688q0 118 -65 192t-177 74t-173 -78q-60 -78 -60 -188t62 -187t169 -77t176 72q68 74 68 192zM502 340q-126 0 -209 74l-187 -187q-12 -14 -22 -4l-45 47q-9 12 4 25l188 184q-69 84 -69 214t84 214l-201 191q-7 7 2 20l39 41q9 13 20 2l205 -192q75 69 209 69
t205 -63l199 184q9 11 18 2l39 -41q9 -9 0 -22l-193 -183q77 -77 84 -213q-6 -138 -81 -231l190 -178q13 -13 4 -23l-43 -49q-9 -9 -18 0l-203 185q-93 -66 -219 -66z" />
    <glyph glyph-name="yen" unicode="&#xa5;" 
d="M292 -6q-22 0 -22 16v49q0 15 15 15h96q45 0 45 51v252h-307q-21 0 -21 12v47q0 15 21 15h309v145h-311q-19 0 -19 16v43q0 15 21 15h307q-83 150 -180 313q-125 219 -159 265t-79 46h-43q-14 0 -14 15v51q1 14 15 14t34 -2l164 -4l217 4q19 2 35 2t16 -10v-51
q0 -19 -14 -19h-43q-123 0 -82 -86q17 -38 121 -241l127 -234q246 422 264 477q27 84 -62 84h-53q-14 0 -14 19v47q0 14 14 14t33 -2l178 -4q33 0 103 4l51 2q16 0 16 -12v-49q0 -19 -16 -19h-43q-43 0 -72 -39q-33 -50 -76 -125q-63 -101 -143 -238t-135 -222h284
q23 0 23 -15v-47q0 -12 -25 -12h-293v-145h295q23 0 23 -15v-47q0 -12 -21 -12h-294v-244q0 -39 14 -49t49 -10h80q16 0 16 -15v-47q1 -18 -15 -18t-30 2l-71 2q-31 2 -113 2h-115q-79 -6 -101 -6z" />
    <glyph glyph-name="brokenbar" unicode="&#xa6;" horiz-adv-x="716" 
d="M395 666h-78q-12 0 -12 20v678q0 18 12 18h82q15 0 15 -24v-672q0 -20 -19 -20zM324 358h77q13 0 13 -20v-676q0 -20 -19 -20h-78q-12 0 -12 20v676q0 20 19 20z" />
    <glyph glyph-name="section" unicode="&#xa7;" horiz-adv-x="1105" 
d="M274 782q0 -120 107 -210t192 -150t111 -78t45 -41q37 15 67 63t31 95q0 140 -130 231t-227 156t-122 100q-74 -46 -74 -166zM866 1360q0 -82 -82 -82q-36 0 -52 13t-58 69q-36 54 -102 56t-126 -52q-55 -55 -55 -133q0 -34 6 -64l19 -57t24 -35q19 -24 35 -40
q15 -16 54 -44t57 -39t30 -18.5l28 -17.5t39 -24t30 -18q236 -149 233 -339q3 -197 -174 -283q64 -76 64 -204t-97 -232q-95 -92 -258 -92q-103 0 -174 30q-71 34 -71 78t22 67t55 23q63 0 107 -62t108 -63q64 0 123 39q56 44 56 134t-35 148q-34 60 -62 84t-46.5 37t-46 33
t-73.5 52t-102 75q-180 143 -180 327t153 278q-34 64 -34 172t77 196q60 66 131 88t165 21t153 -39t59 -82z" />
    <glyph glyph-name="dieresis" unicode="&#xa8;" horiz-adv-x="665" 
d="M514 1114q-36 0 -71 23t-35 63t26 73q26 32 70 32t74 -27q26 -29 26 -71t-26 -68q-28 -25 -64 -25zM158 1305q44 0 72 -28t28 -70q0 -41 -27 -67t-63 -26t-71 24q-36 24 -36 62t25 74q28 31 72 31z" />
    <glyph glyph-name="copyright" unicode="&#xa9;" horiz-adv-x="1689" 
d="M1487 735q-1 129 -43 247t-110 193q-68 76 -150 132q-162 100 -338 100q-270 0 -456 -193t-185 -489q0 -141 41 -261t103 -192t157 -133q167 -96 338 -96t299 64q128 65 201 171t108 217t35 240zM851 1481q322 0 533 -211.5t211 -539.5t-206 -544q-207 -216 -545 -217
t-543 215t-205 540t219 540q214 217 536 217zM860 274q-206 0 -325 113q-138 137 -138 335t131 335q123 123 322 123q102 0 237 -66q21 -12 27 0l8 33q3 8 24 8t25 -4q3 -5 3 -47t32 -205q0 -12 -6 -12l-24 -6q-12 -4 -17 4q-115 233 -313 233q-147 0 -224 -112t-77 -244
q7 -186 111 -295t239 -109q196 0 315 162q4 4 33 -18q8 -8 -2 -21q-148 -207 -381 -207z" />
    <glyph glyph-name="ordfeminine" unicode="&#xaa;" horiz-adv-x="675" 
d="M203 692q0 -34 18 -55t45 -21q26 0 70 20t63 46v176q-58 -22 -66 -26t-47 -24t-61 -50q-22 -32 -22 -66zM530 971v-211q0 -150 43 -150q30 0 48 35q4 11 14 8l27 -10q7 -2 0 -23q-8 -21 -42 -50t-92 -29q-87 0 -122 84h-3q-89 -74 -151 -80q-32 -4 -74 -4t-81 40
q-40 40 -40 87q0 106 162 176q37 17 180 69v76q0 42 -28 84q-27 27 -83 27t-91 -33q-9 -10 -13 -20v-25q4 -10 4 -21q0 -57 -86 -57q-27 0 -41 17q-16 13 -16 40q0 61 107 119q98 45 192 45q94 -1 140 -39t46 -155z" />
    <glyph glyph-name="guillemotleft" unicode="&#xab;" horiz-adv-x="843" 
d="M718 774q3 0 9 -6l29 -29q6 -6 6 -11t-8 -13l-187 -281l189 -282q6 -9 6 -14t-6 -11l-31 -29l-6 -4q-3 0 -14 8l-320 320q-8 8 -8 12t10 15l320 317q8 8 11 8zM393 774q4 0 10 -6l29 -29q6 -6 6 -11t-8 -13l-186 -281l188 -282q6 -9 6 -14t-6 -11l-31 -29q-3 -4 -7 -4
t-15 8l-318 320q-8 8 -8 12t10 15l318 317q8 8 12 8z" />
    <glyph glyph-name="logicalnot" unicode="&#xac;" 
d="M115 596v115h794v-461h-123v346h-671z" />
    <glyph glyph-name="uni00AD" unicode="&#xad;" horiz-adv-x="827" 
d="M106 498v90q0 14 19 14h573q23 0 23 -22v-78q0 -15 -25 -15h-571q-19 -3 -19 11z" />
    <glyph glyph-name="registered" unicode="&#xae;" horiz-adv-x="1159" 
d="M580 606q199 0 299 122t100 282q1 110 -39 190t-103 126q-122 89 -257 89q-172 0 -286 -112t-114 -293q0 -113 39 -195t96 -121t131 -67q75 -21 134 -21zM92 1008q0 202 138 338t354 135q214 1 348 -131t135 -338q0 -206 -133.5 -338t-355.5 -134t-354 132t-132 336z
M554 1020q48 0 85 27q33 30 41 51t8 45q0 53 -44 81t-90 29q-46 0 -54 -2v-229q6 -2 54 -2zM788 1150q0 -60 -43 -98t-98 -48v-5q18 -3 33 -24q50 -59 76 -109t61 -71q21 -15 45 -15t25 -6v-22q0 -7 -8 -7h-25q-24 3 -38 3t-42 -3h-43q-18 14 -35 43q-33 42 -57 89
q-23 47 -53 77q-22 31 -54 31h-32v-39q0 -127 2 -135q3 -31 26 -31h33q6 0 6 -6v-22q0 -7 -6 -7h-47q-48 3 -66 3t-59 -3h-41q-10 0 -10 9v18q0 8 6 8h18q24 0 34 10t10 33v396q-3 36 -46 36h-12q-6 0 -6 7v24q0 6 6 6l101 -4l139 4q108 0 154 -40q46 -42 46 -102z" />
    <glyph glyph-name="macron" unicode="&#xaf;" horiz-adv-x="608" 
d="M61 1063v65q0 15 17 15h450q19 0 19 -15v-65q0 -14 -23 -14h-446q-17 0 -17 14z" />
    <glyph glyph-name="degree" unicode="&#xb0;" horiz-adv-x="614" 
d="M308 1415q-54 0 -96 -41q-42 -42 -42 -102t42 -103t94 -43q54 0 97 43t43 103t-40 104q-45 39 -98 39zM313 1481q104 -1 164 -59t60 -148t-63.5 -150.5t-169.5 -60.5q-106 -1 -165 57t-59 150t63 151q66 60 170 60z" />
    <glyph glyph-name="plusminus" unicode="&#xb1;" 
d="M115 133h794v-115h-794v115zM575 301h-122v291h-338v115h338v280h122v-280h334v-115h-334v-291z" />
    <glyph glyph-name="twosuperior" unicode="&#xb2;" horiz-adv-x="686" 
d="M434 1407q0 75 -42 113t-91 39q-105 0 -182 -99q-10 -17 -23 -10l-26 14q-7 3 -4 15q24 62 94 123t176 61t172.5 -55t66.5 -160q0 -146 -161 -313q-119 -128 -217 -201v-4h227q55 0 88 20q32 22 57 60q9 16 35 6t17 -27l-84 -182q-3 -12 -25 -12t-32 14t-64 14h-289
l-117 -4q-10 0 -10 12q-6 14 4 21q178 145 281 260q149 162 149 295z" />
    <glyph glyph-name="threesuperior" unicode="&#xb3;" horiz-adv-x="686" 
d="M47 906q0 24 14 50q19 21 39 21q37 0 56 -45l8 -23q35 -41 111 -41t128 52t52 120t-49 124t-123 69q-29 6 -29 29q3 19 22 22q60 3 105 51q47 43 47 101t-34 96t-87 39q-119 0 -162 -119q-6 -17 -20 -14l-27 6q-11 3 -8 20q15 80 76 140t174 59q113 0 160 -53
q51 -48 51 -109q0 -132 -145 -215q72 -16 131 -76t59 -135q0 -123 -96 -194q-91 -76 -238 -76q-78 0 -131 18q-84 24 -84 83z" />
    <glyph glyph-name="acute" unicode="&#xb4;" horiz-adv-x="675" 
d="M552 1323q46 0 58 -45q17 -46 -39 -90l-268 -193q-6 -6 -12 0l-25 21q-6 6 0 12l197 244q43 51 89 51z" />
    <glyph glyph-name="paragraph" unicode="&#xb6;" horiz-adv-x="1177" 
d="M733 -248q0 -28 -14 -28h-51q-15 0 -15 32v727q-551 35 -551 475q0 292 215 398q109 54 242 74t334 20h194q23 0 23 -14v-35q0 -17 -25 -17h-120v-1644q0 -16 -15 -16h-51q-14 0 -14 30v1626q-67 0 -152 -10v-1618z" />
    <glyph glyph-name="periodcentered" unicode="&#xb7;" horiz-adv-x="520" 
d="M268 608q-44 0 -86 28t-43 78q0 50 29 93q30 37 84 37t96 -33q33 -41 33 -90t-33 -82q-36 -31 -80 -31z" />
    <glyph glyph-name="cedilla" unicode="&#xb8;" horiz-adv-x="667" 
d="M416 -279q0 -87 -101 -147q-102 -57 -213 -57q-41 0 -41 41q-1 28 61 28t116 30t55 85q0 80 -135 104l159 195h91l-119 -139q48 -14 88 -54q39 -42 39 -86z" />
    <glyph glyph-name="onesuperior" unicode="&#xb9;" horiz-adv-x="686" 
d="M140 817q-15 0 -15 10v54q0 8 18 8h60q63 0 77 10t16 52t3 110v207q0 46 -4 172q-3 49 -31 49q-19 0 -53 -12l-80 -33q-16 -10 -20 -2l-23 41q-3 6 8 12l283 154q25 14 39 14q14 -1 14 -21t-2 -61v-143q-2 -55 -2 -154v-323q0 -46 14 -60q18 -12 80 -12h47q13 0 13 -12
v-50q0 -10 -16 -10t-42 2l-170 4l-170 -4q-29 -2 -44 -2z" />
    <glyph glyph-name="ordmasculine" unicode="&#xba;" horiz-adv-x="757" 
d="M190 899q0 -149 52 -223t138 -74t134 64t47 178q0 114 -53 188q-58 72 -126 72t-114 -37q-78 -63 -78 -168zM369 541q-150 0 -250 100q-76 79 -76 217t104 227q100 80 242 80q142 1 234 -81t92 -225t-99 -228q-97 -90 -247 -90z" />
    <glyph glyph-name="guillemotright" unicode="&#xbb;" horiz-adv-x="843" 
d="M450 94q-4 0 -10 6l-28 27q-6 5 -6 11t8 14l186 282l-188 281q-6 9 -6 13t6 11l30 31q4 4 8 4t15 -10l317 -318q9 -9 9 -12t-11 -14l-317 -318q-9 -8 -13 -8zM125 94q-4 0 -10 6l-27 27q-6 5 -6 11t8 14l186 282l-188 281q-6 9 -6 13t6 11l29 31q4 4 8 4t14 -10l320 -318
q8 -8 8 -12t-10 -14l-320 -318q-8 -8 -12 -8z" />
    <glyph glyph-name="onequarter" unicode="&#xbc;" horiz-adv-x="1519" 
d="M389 696q0 -48 17 -59q12 -12 77 -12h47q13 0 13 -13v-49q0 -10 -15 -10l-135 4q-35 2 -77 2t-74 -2l-142 -4q-14 0 -14 10v53q0 9 18 9h60q61 0 78 10q13 10 16 57v107q2 68 2 143v62q0 46 -4 172q-3 49 -31 49q-16 0 -53 -13l-80 -32q-16 -10 -20 -2l-23 41q-3 6 8 12
l283 153q27 15 37 15q16 0 16 -19v-61l-4 -143v-480zM382 -31q-6 1 -35 17q-30 16 -30 24t11 25l831 1347q11 17 17 17t36 -17q30 -18 31 -24q0 -6 -8 -19l-832 -1343q-15 -27 -21 -27zM1186 311v291q0 18 -10 22t-19 -10l-231 -270q-26 -33 8 -33h252zM1290 0h-88
q-16 0 -16 20v195h-395q-19 -1 -19 19t14 34l457 547q25 25 37 25q31 0 31 -47v-482h133q14 0 14 -18v-62q0 -16 -20 -16h-127v-192q0 -23 -21 -23z" />
    <glyph glyph-name="onehalf" unicode="&#xbd;" horiz-adv-x="1519" 
d="M72 563v53q0 9 18 9h60q60 0 77 10q13 11 15 53t4 111v205q0 46 -4 172q-3 49 -31 49q-16 0 -53 -13l-80 -32q-17 -10 -21 -2l-22 41q-3 6 8 12l283 153q27 15 36 15q17 1 17 -21t-2 -59v-143q-2 -57 -2 -156v-324q0 -45 14 -59q18 -12 80 -12h47q12 0 12 -13v-49
q0 -10 -14 -10l-135 4q-35 2 -76 2t-78 -2l-139 -4q-14 0 -14 10zM813 8q0 12 8 17q223 201 281 264q149 162 149 295q0 75 -43 112q-39 39 -90 39q-106 0 -182 -98q-10 -17 -23 -10l-26 14q-7 3 -4 14q25 61 95 123t174 62t172.5 -56t68.5 -159q0 -146 -162 -314
q-116 -125 -217 -200v-5h227q55 0 87 20t58 60q10 16 36 6t16 -26l-84 -182q-2 -13 -24 -13q-22 1 -32 15t-65 14h-289l-117 -4q-14 0 -14 12zM338 -31q-6 1 -36 17t-30 24t11 25l831 1347q10 17 16 17t38 -17q30 -18 30 -24t-8 -19l-832 -1343q-14 -27 -20 -27z" />
    <glyph glyph-name="threequarters" unicode="&#xbe;" horiz-adv-x="1519" 
d="M1165 311v291q0 18 -9 22t-19 -10l-232 -270q-26 -33 8 -33h252zM1270 0h-88q-17 0 -17 20v195h-395q-18 -1 -18 19t14 34l457 547q25 25 37 25q30 0 30 -47v-482h133q15 0 15 -18v-62q0 -16 -21 -16h-127v-192q0 -23 -20 -23zM268 541q-75 0 -129 17q-54 18 -70 40
t-16 48t17 46q12 21 34 21q37 0 56 -45l10 -23q35 -41 112 -41t128 51t51 119t-49 127q-50 56 -123 68q-29 6 -29 28q3 20 23 23q55 3 104 49q47 50 47 105t-34 94t-87 39q-118 0 -161 -119q-6 -17 -21 -14l-27 6q-11 3 -8 20q15 78 76 139q62 60 172 60t164 -51
q49 -55 49 -111q0 -132 -145 -215q74 -16 132 -76t58 -135q0 -118 -94 -197q-98 -73 -240 -73zM378 -31q-6 1 -35 17q-30 16 -30 24t11 25l831 1347q11 17 17 17t36 -17q30 -18 31 -24q0 -6 -8 -19l-832 -1343q-15 -27 -21 -27z" />
    <glyph glyph-name="questiondown" unicode="&#xbf;" horiz-adv-x="757" 
d="M482 659q-46 -1 -81 29q-34 30 -34 78t30 82q31 31 81 31t81 -35q35 -30 35 -74t-33 -77.5t-79 -33.5zM541 -557q-136 -1 -309 177t-173 357q0 59 27 125q11 19 33 41q25 21 41 34t49 24t49 15t48 8q32 2 42 5h49q20 2 37 2t17 17v219q0 14 14 14h39q14 0 14 -14v-387
q0 -24 -31 -18t-97 6t-114 -12t-90 -52q-41 -40 -41 -98q0 -100 111 -185q72 -60 122 -79t112 -19q61 0 108 -29q41 -30 41 -71q-1 -35 -31 -57q-30 -23 -67 -23z" />
    <glyph glyph-name="Agrave" unicode="&#xc0;" horiz-adv-x="1521" 
d="M395 1825q-1 27 21 49t53 22t84 -41l285 -233q9 -9 0 -18l-25 -29q-6 -6 -16 0l-342 168q-60 31 -60 82zM717 1276q-11 0 -19 -20t-106 -281.5t-117 -331.5h453q-46 153 -195 604q-13 29 -16 29zM299 119q0 -45 70 -45h96q20 0 20 -15v-47q0 -18 -16 -18h-4h-13l-65 2
q-53 4 -151 4h-115q-78 -6 -100 -6q-23 0 -23 16v49q0 15 16 15h72q43 0 70 20q30 27 73 128t121 315q78 215 138 375t86.5 231t38 102t20.5 59t-4 50q-15 18 -15 28t30 18t86 42q55 34 73 59q19 19 26 19q15 0 31 -58t108 -330t128 -390t104 -316q70 -198 98 -260
q47 -92 140 -92h67q17 0 17 -15v-51q0 -14 -21 -14h-3h-12l-61 2q-47 4 -174 4t-186 -4l-98 -2q-17 0 -17 18v47q0 15 19 15h51q41 0 57 16q13 16 4 62q-30 135 -129 417h-503q-150 -388 -150 -450z" />
    <glyph glyph-name="Aacute" unicode="&#xc1;" horiz-adv-x="1521" 
d="M1021.5 1896q30.5 0 52.5 -22t22 -49q0 -51 -60 -82l-344 -168q-8 -6 -14 0l-25 33q-7 7 4 16l281 231q53 41 83.5 41zM717 1276q-11 0 -19 -20t-106 -281.5t-117 -331.5h453q-46 153 -195 604q-13 29 -16 29zM299 119q0 -45 70 -45h96q20 0 20 -15v-47q0 -18 -16 -18h-4
h-13l-65 2q-53 4 -151 4h-115q-78 -6 -100 -6q-23 0 -23 16v49q0 15 16 15h72q43 0 70 20q30 27 73 128t121 315q78 215 138 375t86.5 231t38 102t20.5 59t-4 50q-15 18 -15 28t30 18t86 42q55 34 73 59q19 19 26 19q15 0 31 -58t108 -330t128 -390t104 -316
q70 -198 98 -260q47 -92 140 -92h67q17 0 17 -15v-51q0 -14 -21 -14h-3h-12l-61 2q-47 4 -174 4t-186 -4l-98 -2q-17 0 -17 18v47q0 15 19 15h51q41 0 57 16q13 16 4 62q-30 135 -129 417h-503q-150 -388 -150 -450z" />
    <glyph glyph-name="Acircumflex" unicode="&#xc2;" horiz-adv-x="1521" 
d="M780 1862q6 0 27 -19l260 -229q8 -8 2 -17l-14 -18q-6 -9 -19 -2l-262 117l-244 -117q-14 -6 -20 0l-16 20q-3 10 6 19l252 227q22 19 28 19zM717 1276q-11 0 -19 -20t-106 -281.5t-117 -331.5h453q-46 153 -195 604q-13 29 -16 29zM299 119q0 -45 70 -45h96q20 0 20 -15
v-47q0 -18 -16 -18h-4h-13l-65 2q-53 4 -151 4h-115q-78 -6 -100 -6q-23 0 -23 16v49q0 15 16 15h72q43 0 70 20q30 27 73 128t121 315q78 215 138 375t86.5 231t38 102t20.5 59t-4 50q-15 18 -15 28t30 18t86 42q55 34 73 59q19 19 26 19q15 0 31 -58t108 -330t128 -390
t104 -316q70 -198 98 -260q47 -92 140 -92h67q17 0 17 -15v-51q0 -14 -21 -14h-3h-12l-61 2q-47 4 -174 4t-186 -4l-98 -2q-17 0 -17 18v47q0 15 19 15h51q41 0 57 16q13 16 4 62q-30 135 -129 417h-503q-150 -388 -150 -450z" />
    <glyph glyph-name="Atilde" unicode="&#xc3;" horiz-adv-x="1521" 
d="M528 1602h-36q-16 0 -7 34q15 82 61 128t95 46t159 -30t154 -29q50 0 68 70q3 12 14 12h35q15 0 3 -53q-12 -52 -52 -98t-90 -46q-51 0 -114.5 18t-99.5 29t-78 11q-78 0 -97 -82q-3 -10 -15 -10zM717 1276q-11 0 -19 -20t-106 -281.5t-117 -331.5h453q-46 153 -195 604
q-13 29 -16 29zM299 119q0 -45 70 -45h96q20 0 20 -15v-47q0 -18 -16 -18h-4h-13l-65 2q-53 4 -151 4h-115q-78 -6 -100 -6q-23 0 -23 16v49q0 15 16 15h72q43 0 70 20q30 27 73 128t121 315q78 215 138 375t86.5 231t38 102t20.5 59t-4 50q-15 18 -15 28t30 18t86 42
q55 34 73 59q19 19 26 19q15 0 31 -58t108 -330t128 -390t104 -316q70 -198 98 -260q47 -92 140 -92h67q17 0 17 -15v-51q0 -14 -21 -14h-3h-12l-61 2q-47 4 -174 4t-186 -4l-98 -2q-17 0 -17 18v47q0 15 19 15h51q41 0 57 16q13 16 4 62q-30 135 -129 417h-503
q-150 -388 -150 -450z" />
    <glyph glyph-name="Adieresis" unicode="&#xc4;" horiz-adv-x="1521" 
d="M877 1700q-1 42 25 72t72 30t75 -26q26 -29 26 -72.5t-26 -67.5t-64 -24t-74 22q-34 24 -34 66zM469 1700q-1 42 25 72t71 30t74 -26q27 -30 27 -72t-26 -67t-64 -25q-36 0 -72 22q-35 24 -35 66zM717 1276q-11 0 -19 -20t-106 -281.5t-117 -331.5h453q-46 153 -195 604
q-13 29 -16 29zM299 119q0 -45 70 -45h96q20 0 20 -15v-47q0 -18 -16 -18h-4h-13l-65 2q-53 4 -151 4h-115q-78 -6 -100 -6q-23 0 -23 16v49q0 15 16 15h72q43 0 70 20q30 27 73 128t121 315q78 215 138 375t86.5 231t38 102t20.5 59t-4 50q-15 18 -15 28t30 18t86 42
q55 34 73 59q19 19 26 19q15 0 31 -58t108 -330t128 -390t104 -316q70 -198 98 -260q47 -92 140 -92h67q17 0 17 -15v-51q0 -14 -21 -14h-3h-12l-61 2q-47 4 -174 4t-186 -4l-98 -2q-17 0 -17 18v47q0 15 19 15h51q41 0 57 16q13 16 4 62q-30 135 -129 417h-503
q-150 -388 -150 -450z" />
    <glyph glyph-name="Aring" unicode="&#xc5;" horiz-adv-x="1521" 
d="M862 1698q0 50 -27 77t-69 25t-70 -30q-26 -30 -26 -74t25 -71q25 -28 71 -28t70 29q26 22 26 72zM776 1853q92 0 142 -40q50 -39 51 -113q0 -74 -65 -114t-145 -40t-141 39q-55 43 -55 111t64 110q57 47 149 47zM717 1276q-11 0 -19 -20t-106 -281.5t-117 -331.5h453
q-46 153 -195 604q-10 29 -16 29zM299 119q0 -45 70 -45h96q20 0 20 -15v-47q0 -18 -16 -18h-4h-13l-65 2q-53 4 -151 4h-115q-78 -6 -100 -6q-23 0 -23 16v49q0 15 16 15h72q43 0 70 20q30 27 73 128t121 315q78 215 138 375t86.5 231t38 102t20.5 59t-4 50q-15 18 -15 29
t19 14q139 20 166 34.5t37 14.5q8 4 18 4t25 -45q58 -175 129 -387t97 -302q25 -92 95 -290t98 -260q47 -92 140 -92h67q17 0 17 -15v-51q0 -14 -21 -14h-3h-12l-61 2q-47 4 -174 4t-186 -4l-98 -2q-17 0 -17 18v47q0 15 19 15h51q41 0 57 16q13 16 4 62q-30 135 -129 417
h-503q-150 -388 -150 -450z" />
    <glyph glyph-name="AE" unicode="&#xc6;" horiz-adv-x="1892" 
d="M825 725v557q1 33 -17 33t-34 -25l-313 -565h364zM1482 1452q84 0 107 2l33 4q13 0 15 -7t10 -32t15 -47t42 -138t39 -124q4 -9 -8 -12l-25 -15q-10 -6 -20 4l-195 232q-47 59 -137 59l-354 6v-659q198 0 257 9t77 26t28 65l18 101q0 17 19 14l45 -4l14 -2q4 -7 0 -27
q-4 -19 -4 -163t12 -267q3 -16 -16 -16l-41 -6q-13 -3 -16 12l-27 100q-15 72 -84 78q-99 6 -282 6v-59l4 -350q0 -82 22 -116t78 -46t157 -12t171 6q113 3 166 71l159 215q12 21 31 9l25 -15q16 -9 12 -20l-113 -309q-9 -31 -33 -31q-10 0 -20 2h-57q-25 2 -104 2t-212 2
h-481q-37 -2 -72 -2l-86 -4q-20 0 -20 18v43q0 19 18 19h117q36 0 49 16q10 20 10 74v487h-407q-158 -301 -223 -442q-23 -57 -23 -84t18 -39t39 -12h99q20 0 20 -17v-37q0 -26 -16 -26t-35 2l-197 4q-55 0 -149 -4l-74 -2q-14 0 -14 26v35q0 19 14 19h70q40 0 110 94
q29 38 179 318q172 320 378 669q67 121 70 127q44 96 -29 96h-37q-18 0 -18 19v43q0 18 23 18l266 -8h395q114 2 198 2z" />
    <glyph glyph-name="Ccedilla" unicode="&#xc7;" horiz-adv-x="1527" 
d="M98 731q0 322 209 543q86 92 219 147q132 60 293 60q222 0 414 -113q35 -21 41 0l16 59q2 13 22 13t24 -7t3 -17q0 -10 21 -195q30 -209 32 -219t-10 -13l-30 -8q-12 -3 -21 18q-53 145 -160 252q-155 158 -356 158q-130 -1 -233 -55q-102 -54 -164 -150t-88 -202
q-26 -108 -27 -224q1 -116 47 -262t150 -258q89 -102 179 -137t233 -35q142 0 278 77t209 183q8 14 16 6l27 -20q10 -10 4 -19q-237 -344 -608 -344l-86 -108q58 -15 96 -56q41 -38 41 -84q-1 -89 -105 -147t-219 -57q-41 0 -41 41q0 28 60 28t116 31q52 32 52 84
q0 74 -131 104l131 168q-253 21 -435 185q-103 98 -161 256t-58 317z" />
    <glyph glyph-name="Egrave" unicode="&#xc8;" horiz-adv-x="1413" 
d="M401 1825q0 23 21 51q28 20 56 20t81 -41l285 -233q9 -9 0 -18l-25 -29q-6 -6 -16 0l-342 168q-60 31 -60 82zM274 0l-161 -6q-19 0 -19 14v55q0 11 21 11h82q73 0 86 16q16 13 16 74v686q0 384 -6 441t-27 69q-19 16 -78 16h-73q-17 0 -17 15v55q0 10 15 10l92 -2
q55 -4 160 -4h393q135 2 305 2l47 2q48 2 51 -8q3 -16 53 -172t53 -165q2 -8 -7 -11l-31 -17q-11 -7 -16 5t-87 110q-82 99 -118 125q-76 52 -156 55l-365 8v-600q285 0 325 40t46 163q0 14 14 14l52 -2q14 0 10 -25q-4 -24 -4 -166t12 -271q0 -14 -12 -17l-45 -6
q-5 -2 -13 2q0 20 -27 114q-20 70 -87 79q-105 10 -271 10v-127l5 -350q3 -139 116 -160q66 -14 167 -14t187 9t156 68q10 8 82 97q73 97 86 117t25 14l32 -19q13 -10 5 -28l-109 -301q-9 -31 -45 -31q-8 0 -20 2h-62q-29 2 -116 2t-226 2h-496z" />
    <glyph glyph-name="Eacute" unicode="&#xc9;" horiz-adv-x="1413" 
d="M956 1896q29 0 56 -20q20 -27 20 -51q0 -52 -59 -82l-344 -168q-9 -6 -15 0l-24 33q-7 7 4 16l280 231q53 41 82 41zM274 0l-161 -6q-19 0 -19 14v55q0 11 21 11h82q73 0 86 16q16 13 16 74v686q0 384 -6 441t-27 69q-19 16 -78 16h-73q-17 0 -17 15v55q0 10 15 10l92 -2
q55 -4 160 -4h393q135 2 305 2l47 2q48 2 51 -8q3 -16 53 -172t53 -165q2 -8 -7 -11l-31 -17q-11 -7 -16 5t-87 110q-82 99 -118 125q-76 52 -156 55l-365 8v-600q285 0 325 40t46 163q0 14 14 14l52 -2q14 0 10 -25q-4 -24 -4 -166t12 -271q0 -14 -12 -17l-45 -6
q-5 -2 -13 2q0 20 -27 114q-20 70 -87 79q-105 10 -271 10v-127l5 -350q3 -139 116 -160q66 -14 167 -14t187 9t156 68q10 8 82 97q73 97 86 117t25 14l32 -19q13 -10 5 -28l-109 -301q-9 -31 -45 -31q-8 0 -20 2h-62q-29 2 -116 2t-226 2h-496z" />
    <glyph glyph-name="Ecircumflex" unicode="&#xca;" horiz-adv-x="1413" 
d="M736 1862q6 0 28 -19l260 -229q8 -8 2 -17l-14 -18q-6 -9 -19 -2l-262 117l-244 -117q-14 -6 -20 0l-16 20q-3 10 6 19l252 227q21 19 27 19zM274 0l-161 -6q-19 0 -19 14v55q0 11 21 11h82q73 0 86 16q16 13 16 74v686q0 384 -6 441t-27 69q-19 16 -78 16h-73
q-17 0 -17 15v55q0 10 15 10l92 -2q55 -4 160 -4h393q135 2 305 2l47 2q48 2 51 -8q3 -16 53 -172t53 -165q2 -8 -7 -11l-31 -17q-11 -7 -16 5t-87 110q-82 99 -118 125q-76 52 -156 55l-365 8v-600q285 0 325 40t46 163q0 14 14 14l52 -2q14 0 10 -25q-4 -24 -4 -166
t12 -271q0 -14 -12 -17l-45 -6q-5 -2 -13 2q0 20 -27 114q-20 70 -87 79q-105 10 -271 10v-127l5 -350q3 -139 116 -160q66 -14 167 -14t187 9t156 68q10 8 82 97q73 97 86 117t25 14l32 -19q13 -10 5 -28l-109 -301q-9 -31 -45 -31q-8 0 -20 2h-62q-29 2 -116 2t-226 2
h-496z" />
    <glyph glyph-name="Edieresis" unicode="&#xcb;" horiz-adv-x="1413" 
d="M929 1802q46 0 75 -26q26 -29 26 -72.5t-26 -67.5t-64 -24t-74 22q-35 24 -35 66t25 72q27 30 73 30zM424 1700q0 42 26 72t70 30q45 0 74 -26q27 -30 26.5 -72t-26.5 -67t-62 -25t-73 22q-35 24 -35 66zM274 0l-161 -6q-19 0 -19 14v55q0 11 21 11h82q73 0 86 16
q16 13 16 74v686q0 384 -6 441t-27 69q-19 16 -78 16h-73q-17 0 -17 15v55q0 10 15 10l92 -2q55 -4 160 -4h393q135 2 305 2l47 2q48 2 51 -8q3 -16 53 -172t53 -165q2 -8 -7 -11l-31 -17q-11 -7 -16 5t-87 110q-82 99 -118 125q-76 52 -156 55l-365 8v-600q285 0 325 40
t46 163q0 14 14 14l52 -2q14 0 10 -25q-4 -24 -4 -166t12 -271q0 -14 -12 -17l-45 -6q-5 -2 -13 2q0 20 -27 114q-20 70 -87 79q-105 10 -271 10v-127l5 -350q3 -139 116 -160q66 -14 167 -14t187 9t156 68q10 8 82 97q73 97 86 117t25 14l32 -19q13 -10 5 -28l-109 -301
q-9 -31 -45 -31q-8 0 -20 2h-62q-29 2 -116 2t-226 2h-496z" />
    <glyph glyph-name="Igrave" unicode="&#xcc;" horiz-adv-x="759" 
d="M35 1825q0 29 21 50q20 21 52 21t85 -41l284 -233q9 -9 0 -18l-24 -29q-7 -7 -17 0l-342 168q-59 30 -59 82zM475 664l1 -86l2 -213l3 -218q0 -45 23 -59q17 -14 74 -14h84q16 0 16 -15v-53q0 -12 -18 -12t-42 2l-243 4h-158q-108 -6 -136 -6t-28 12v55q0 13 17 13h114
q83 0 92 59q11 93 11 582v143q0 340 -8 449q-3 40 -25 53q-19 16 -78 16h-119q-16 0 -16 13v55q0 12 17 12t44 -2l273 -4l235 4q24 2 40 2t16 -14v-51q0 -15 -17 -15h-96q-72 0 -72 -57v-3l-1 -44l-1 -201q-4 -158 -4 -250v-157z" />
    <glyph glyph-name="Iacute" unicode="&#xcd;" horiz-adv-x="759" 
d="M649 1896q29 0 56 -20q20 -27 20 -51q0 -52 -59 -82l-344 -168q-9 -6 -15 0l-24 33q-7 7 4 16l280 231q53 41 82 41zM475 664l1 -86l2 -213l3 -218q0 -45 23 -59q17 -14 74 -14h84q16 0 16 -15v-53q0 -12 -18 -12t-42 2l-243 4h-158q-108 -6 -136 -6t-28 12v55
q0 13 17 13h114q83 0 92 59q11 93 11 582v143q0 340 -8 449q-3 40 -25 53q-19 16 -78 16h-119q-16 0 -16 13v55q0 12 17 12t44 -2l273 -4l235 4q24 2 40 2t16 -14v-51q0 -15 -17 -15h-96q-72 0 -72 -57v-3l-1 -44l-1 -201q-4 -158 -4 -250v-157z" />
    <glyph glyph-name="Icircumflex" unicode="&#xce;" horiz-adv-x="759" 
d="M378 1862q6 0 28 -19l260 -229q8 -8 2 -17l-15 -18q-5 -8 -18 -2l-262 117l-244 -117q-14 -6 -20 0l-17 20q-3 10 6 19l252 227q22 19 28 19zM475 664l1 -86l2 -213l3 -218q0 -45 23 -59q17 -14 74 -14h84q16 0 16 -15v-53q0 -12 -18 -12t-42 2l-243 4h-158
q-108 -6 -136 -6t-28 12v55q0 13 17 13h114q83 0 92 59q11 93 11 582v143q0 340 -8 449q-3 40 -25 53q-19 16 -78 16h-119q-16 0 -16 13v55q0 12 17 12t44 -2l273 -4l235 4q24 2 40 2t16 -14v-51q0 -15 -17 -15h-96q-72 0 -72 -57v-3l-1 -44l-1 -201q-4 -158 -4 -250v-157z
" />
    <glyph glyph-name="Idieresis" unicode="&#xcf;" horiz-adv-x="759" 
d="M485 1700q-1 42 25 72t74 30t71 -26q29 -26 29 -70t-26 -69t-64 -25t-74 22q-35 24 -35 66zM78 1700q0 42 26 72t72 30t72 -26t26 -70t-26 -70q-26 -24 -62 -24t-73 22q-35 24 -35 66zM475 664l1 -86l2 -213l3 -218q0 -45 23 -59q17 -14 74 -14h84q16 0 16 -15v-53
q0 -12 -18 -12t-42 2l-243 4h-158q-108 -6 -136 -6t-28 12v55q0 13 17 13h114q83 0 92 59q11 93 11 582v143q0 340 -8 449q-3 40 -25 53q-19 16 -78 16h-119q-16 0 -16 13v55q0 12 17 12t44 -2l273 -4l235 4q24 2 40 2t16 -14v-51q0 -15 -17 -15h-96q-72 0 -72 -57v-3
l-1 -44l-1 -201q-4 -158 -4 -250v-157z" />
    <glyph glyph-name="Eth" unicode="&#xd0;" horiz-adv-x="1665" 
d="M59 59q0 15 15 15h139q59 0 68 61q12 73 12 502v55h-199q-18 0 -18 19v41q0 18 18 18h199v170q0 284 -10 379q-6 57 -88 57h-117q-12 0 -12 19v45q0 16 16 16t39 -2l260 -4q86 0 168 4l137 2q228 0 387 -40t279 -144q227 -196 227 -522q0 -318 -187 -522
q-86 -94 -173 -142q-163 -92 -447 -92h-10h-47l-144 2q-104 4 -209 4h-141q-134 -7 -160 -4l-2 14v49zM481 887v-117h348q19 0 19 -18v-41q0 -19 -19 -19h-348q0 -144 4 -452q0 -62 35 -115q51 -66 209 -66q157 0 283 59t207 163q149 183 149 460q0 116 -47 243t-121 210
q-182 197 -514 197q-130 1 -165 -21t-37 -88t-3 -395z" />
    <glyph glyph-name="Ntilde" unicode="&#xd1;" horiz-adv-x="1628" 
d="M602 1602h-37q-15 0 -6 34q16 84 61 129q44 45 94 45t160 -30t154 -29q50 0 68 70q3 12 14 12h35q15 0 3 -53q-12 -52 -52 -98t-89 -46q-50 0 -114.5 18t-100.5 29t-96 11q-23 0 -47 -22t-33 -60q-3 -10 -14 -10zM508 -6q-205 9 -309 2l-95 -2q-10 0 -10 14v53
q0 13 12 13h70q45 0 66 24q18 25 26 97t8 641v348q0 90 -38 139q-39 48 -97 51l-84 2q-12 0 -12 15v53q1 12 11 12t22 -2h37q82 -4 145 -4l137 4q36 0 60 -27q7 -13 191 -249q184 -234 212 -272t39.5 -52t37.5 -45t57 -71t132.5 -163.5t178.5 -222.5h8v244q0 609 -31 700
q-24 80 -113 80h-65q-12 0 -12 15v53q0 12 12 12h4h12l60 -2q47 -4 145 -4l41 1l159 5h3q16 0 16 -14v-51q0 -15 -12 -15h-55q-43 0 -60 -26q-17 -31 -23 -120t-5 -439v-766q0 -50 -11 -50q-26 0 -49 33q-1 1 -63.5 81t-275.5 345t-219 270t-131 160t-175 218t-74.5 93.5
t-28.5 36.5h-12v-454q0 -596 43 -658q12 -26 53 -26h62q16 0 16 -19v-45q0 -16 -16 -16z" />
    <glyph glyph-name="Ograve" unicode="&#xd2;" horiz-adv-x="1681" 
d="M516 1825q0 23 21 51q27 20 55 20t82 -41l284 -233q9 -9 0 -18l-24 -29q-6 -6 -16 0l-343 168q-59 30 -59 82zM1081 98q100 48 155 120q54 72 100 194t46 280t-53 298t-135 228t-176 136.5t-182 48.5q-9 0 -21 2h-31q-5 -1 -36 -3.5t-62 -13.5q-106 -38 -174 -106
q-99 -96 -152 -234t-53 -281q1 -143 41 -271t102 -210t140 -138q140 -102 268 -101q127 0 223 51zM840 -31q-225 0 -441 133q-125 76 -213 238t-88 371q0 278 191 510q211 260 555 260q267 0 459 -162q280 -244 280 -612q0 -243 -153 -449q-217 -289 -590 -289z" />
    <glyph glyph-name="Oacute" unicode="&#xd3;" horiz-adv-x="1681" 
d="M1071 1896q31 0 53 -22t21 -49q0 -51 -60 -82l-344 -168q-8 -6 -14 0l-25 33q-7 7 5 16l280 231q53 41 84 41zM1081 98q100 48 155 120q54 72 100 194t46 280t-53 298t-135 228t-176 136.5t-182 48.5q-9 0 -21 2h-31q-5 -1 -36 -3.5t-62 -13.5q-106 -38 -174 -106
q-99 -96 -152 -234t-53 -281q1 -143 41 -271t102 -210t140 -138q140 -102 268 -101q127 0 223 51zM840 -31q-225 0 -441 133q-125 76 -213 238t-88 371q0 278 191 510q211 260 555 260q267 0 459 -162q280 -244 280 -612q0 -243 -153 -449q-217 -289 -590 -289z" />
    <glyph glyph-name="Ocircumflex" unicode="&#xd4;" horiz-adv-x="1681" 
d="M838 1862q6 0 28 -19l260 -229q8 -8 2 -17l-14 -18q-6 -8 -18 -2l-262 117l-244 -117q-15 -6 -21 0l-16 20q-3 10 6 19l252 227q21 19 27 19zM1081 98q100 48 155 120q54 72 100 194t46 280t-53 298t-135 228t-176 136.5t-182 48.5q-9 0 -21 2h-31q-5 -1 -36 -3.5
t-62 -13.5q-106 -38 -174 -106q-99 -96 -152 -234t-53 -281q1 -143 41 -271t102 -210t140 -138q140 -102 268 -101q127 0 223 51zM840 -31q-225 0 -441 133q-125 76 -213 238t-88 371q0 278 191 510q211 260 555 260q267 0 459 -162q280 -244 280 -612q0 -243 -153 -449
q-217 -289 -590 -289z" />
    <glyph glyph-name="Otilde" unicode="&#xd5;" horiz-adv-x="1681" 
d="M588 1602h-37q-15 0 -6 34q16 84 61 129t94 45t159 -30t157 -29q47 0 65 70q3 12 15 12h34q16 0 4 -55t-53 -95q-36 -47 -102 -47q-41 0 -101 17l-33 9q-33 10 -69 21t-76 11q-78 0 -98 -82q-3 -10 -14 -10zM1081 98q100 48 155 120q54 72 100 194t46 280t-53 298
t-135 228t-176 136.5t-182 48.5q-9 0 -21 2h-31q-5 -1 -36 -3.5t-62 -13.5q-106 -38 -174 -106q-99 -96 -152 -234t-53 -281q1 -143 41 -271t102 -210t140 -138q140 -102 268 -101q127 0 223 51zM840 -31q-225 0 -441 133q-125 76 -213 238t-88 371q0 278 191 510
q211 260 555 260q267 0 459 -162q280 -244 280 -612q0 -243 -153 -449q-217 -289 -590 -289z" />
    <glyph glyph-name="Odieresis" unicode="&#xd6;" horiz-adv-x="1681" 
d="M1044 1802q46 0 74 -26q27 -30 26.5 -72t-26.5 -67t-64 -25t-73 22q-35 24 -35 66t25 72q27 30 73 30zM539 1700q0 42 25 72q24 30 70 30t75 -26q26 -29 26 -72.5t-26 -67.5t-63 -24t-73 22q-34 24 -34 66zM1081 98q100 48 155 120q54 72 100 194t46 280t-53 298
t-135 228t-176 136.5t-182 48.5q-9 0 -21 2h-31q-5 -1 -36 -3.5t-62 -13.5q-106 -38 -174 -106q-99 -96 -152 -234t-53 -281q1 -143 41 -271t102 -210t140 -138q140 -102 268 -101q127 0 223 51zM840 -31q-225 0 -441 133q-125 76 -213 238t-88 371q0 278 191 510
q211 260 555 260q267 0 459 -162q280 -244 280 -612q0 -243 -153 -449q-217 -289 -590 -289z" />
    <glyph glyph-name="multiply" unicode="&#xd7;" 
d="M887 207l-84 -86l-297 299l-297 -299l-72 86l293 289l-291 286l82 84l293 -295l293 295l78 -75l-295 -291z" />
    <glyph glyph-name="Oslash" unicode="&#xd8;" horiz-adv-x="1681" 
d="M836 1403q-7 0 -17 2h-24q-4 -1 -16.5 -2t-24.5 -3t-32 -5t-48 -15q-20 -4 -68 -30t-92 -70q-100 -90 -154 -230t-53 -274q0 -243 101 -420l815 826q-77 101 -183 161t-204 60zM877 47q108 0 204 51q100 48 155 120q54 72 100 194t46 278q0 224 -102 406l-817 -828
q85 -108 195 -164t219 -57zM1583 707q0 -243 -153 -449q-217 -289 -590 -289q-225 0 -441 133q-10 6 -57 43l-162 -163q-14 -13 -18 -13t-15 11l-41 38q-8 12 -8 16t8 17l164 166q-172 205 -172 489t191 515q211 260 555 260q298 0 487 -189l178 181q7 8 11 8t12 -8l51 -41
q10 -10 10 -13l-6 -10l-186 -190q182 -215 182 -512z" />
    <glyph glyph-name="Ugrave" unicode="&#xd9;" horiz-adv-x="1527" 
d="M459 1825q0 24 20 51q27 20 55 20t82 -41l285 -233q9 -9 0 -18l-24 -29q-7 -7 -17 0l-342 168q-59 30 -59 82zM1325 950q0 -316 -10 -463q-18 -262 -172 -395q-132 -123 -385 -123q-176 0 -277 43q-190 75 -243 275q-33 118 -33 497v488q0 56 -16 80t-62 24h-96
q-15 0 -15 19v45q0 16 18 16t44 -2l237 -4l238 4q25 2 43 2t18 -12v-53q0 -15 -16 -15h-102q-43 0 -70 -24q-26 -26 -30 -68t-3 -258v-135q0 -69 10 -434q3 -166 66 -260q103 -148 315 -148q212 1 318 113t106 360v439q0 229 -6 297q-11 117 -96 118h-90q-15 0 -15 17v49
q1 14 17 14t39 -2l211 -4l194 4q16 2 34 2t17 -14v-45q0 -21 -12 -21h-84q-17 0 -21 -2t-10 -3.5l-10 -2.5t-8.5 -4.5t-8.5 -5.5q-3 -2 -7 -9q-4 -8 -9 -10l-4 -12q-10 -15 -12 -38t-2 -339z" />
    <glyph glyph-name="Uacute" unicode="&#xda;" horiz-adv-x="1527" 
d="M1096 1896q28 0 55 -20q20 -27 20 -51q0 -52 -59 -82l-344 -168q-8 -6 -14 0l-25 33q-7 7 4 16l281 231q54 41 82 41zM1325 950q0 -316 -10 -463q-18 -262 -172 -395q-132 -123 -385 -123q-176 0 -277 43q-190 75 -243 275q-33 118 -33 497v488q0 56 -16 80t-62 24h-96
q-15 0 -15 19v45q0 16 18 16t44 -2l237 -4l238 4q25 2 43 2t18 -12v-53q0 -15 -16 -15h-102q-43 0 -70 -24q-26 -26 -30 -68t-3 -258v-135q0 -69 10 -434q3 -166 66 -260q103 -148 315 -148q212 1 318 113t106 360v439q0 229 -6 297q-11 117 -96 118h-90q-15 0 -15 17v49
q1 14 17 14t39 -2l211 -4l194 4q16 2 34 2t17 -14v-45q0 -21 -12 -21h-84q-17 0 -21 -2t-10 -3.5l-10 -2.5t-8.5 -4.5t-8.5 -5.5q-3 -2 -7 -9q-4 -8 -9 -10l-4 -12q-10 -15 -12 -38t-2 -339z" />
    <glyph glyph-name="Ucircumflex" unicode="&#xdb;" horiz-adv-x="1527" 
d="M804 1862q6 0 27 -19l261 -229q8 -8 2 -17l-15 -18q-5 -8 -18 -2l-262 117l-244 -117q-14 -6 -20 0l-17 20q-3 10 6 19l252 227q22 19 28 19zM1325 950q0 -316 -10 -463q-18 -262 -172 -395q-132 -123 -385 -123q-176 0 -277 43q-190 75 -243 275q-33 118 -33 497v488
q0 56 -16 80t-62 24h-96q-15 0 -15 19v45q0 16 18 16t44 -2l237 -4l238 4q25 2 43 2t18 -12v-53q0 -15 -16 -15h-102q-43 0 -70 -24q-26 -26 -30 -68t-3 -258v-135q0 -69 10 -434q3 -166 66 -260q103 -148 315 -148q212 1 318 113t106 360v439q0 229 -6 297q-11 117 -96 118
h-90q-15 0 -15 17v49q1 14 17 14t39 -2l211 -4l194 4q16 2 34 2t17 -14v-45q0 -21 -12 -21h-84q-17 0 -21 -2t-10 -3.5l-10 -2.5t-8.5 -4.5t-8.5 -5.5q-3 -2 -7 -9q-4 -8 -9 -10l-4 -12q-10 -15 -12 -38t-2 -339z" />
    <glyph glyph-name="Udieresis" unicode="&#xdc;" horiz-adv-x="1527" 
d="M889 1700q-1 42 25 72t72 30t75 -26q26 -29 26 -72.5t-26 -67.5q-25 -24 -63 -24t-74 22q-35 24 -35 66zM481 1700q-1 42 25 72t71 30t74 -26q27 -30 27 -72t-26 -67t-64 -25q-36 0 -72 22q-35 24 -35 66zM1325 950q0 -316 -10 -463q-18 -262 -172 -395
q-132 -123 -385 -123q-176 0 -277 43q-190 75 -243 275q-33 118 -33 497v488q0 56 -16 80t-62 24h-96q-15 0 -15 19v45q0 16 18 16t44 -2l237 -4l238 4q25 2 43 2t18 -12v-53q0 -15 -16 -15h-102q-43 0 -70 -24q-26 -26 -30 -68t-3 -258v-135q0 -69 10 -434q3 -166 66 -260
q103 -148 315 -148q212 1 318 113t106 360v439q0 229 -6 297q-11 117 -96 118h-90q-15 0 -15 17v49q1 14 17 14t39 -2l211 -4l194 4q16 2 34 2t17 -14v-45q0 -21 -12 -21h-84q-17 0 -21 -2t-10 -3.5l-10 -2.5t-8.5 -4.5t-8.5 -5.5q-3 -2 -7 -9q-4 -8 -9 -10l-4 -12
q-10 -15 -12 -38t-2 -339z" />
    <glyph glyph-name="Yacute" unicode="&#xdd;" horiz-adv-x="1361" 
d="M1062 1896q28 0 56 -20q21 -28 21 -51q0 -51 -60 -82l-344 -168q-8 -6 -14 0l-25 33q-7 7 4 16l281 231q53 41 81 41zM1394 1456q14 0 15 -12v-49q0 -19 -16 -19h-52q-55 0 -97 -42t-488 -685v-268q0 -157 6 -219t26 -74q21 -14 66 -14h80q14 0 14 -15v-47q0 -18 -15 -18
t-40 2l-236 4h-143q-96 -6 -127 -6q-12 0 -12 16v49q0 15 14 15h100q69 0 72 51q6 86 6 381v119q-35 71 -215 369t-217 340t-100 42h-51q-15 0 -15 15v53q-1 12 15 12t39 -2l200 -4l269 4q23 2 37 2t14 -10v-51q0 -19 -15 -19h-67q-47 0 -57 -15t-6 -45q6 -30 69 -140
q55 -109 151 -280t101 -181q26 37 121 184q103 149 174 268q73 115 76 129q14 26 2 53t-70 27h-55q-15 0 -15 19v49q0 12 16 12t36 -2l204 -4l160 4q12 2 26 2z" />
    <glyph glyph-name="Thorn" unicode="&#xde;" horiz-adv-x="1243" 
d="M653 432q134 0 226 94t92 236q0 96 -41 162q-34 66 -98 104q-116 68 -217 68q-100 0 -154 -13v-630q58 -21 192 -21zM672 1161q224 0 368 -103q144 -104 144 -288t-135 -294t-365 -109q-131 0 -223 10v-68q0 -92 4 -170q6 -65 72 -65h127q16 0 16 -15v-49q0 -16 -18 -16
t-39 2l-246 4h-152q-103 -6 -125 -6t-22 14v51q0 15 12 15h94q49 0 65 13q15 13 21 69t6 561v235q0 325 -4 379q-3 45 -88 45h-106q-15 0 -15 17v49q0 14 14 14t34 -2l264 -4l243 4q26 2 44 2t18 -16v-41q0 -23 -21 -23h-122q-67 0 -70 -30q-6 -55 -6 -189q115 4 211 4z" />
    <glyph glyph-name="germandbls" unicode="&#xdf;" horiz-adv-x="1132" 
d="M51 8v45q0 15 21 15h96q28 0 38 16t13 57v586l-121 6q-12 3 -12 17v38q0 12 16 15l117 10v76q0 392 297 549q82 43 164 43t156 -64q75 -60 75 -164q-1 -154 -115 -285t-114 -225q0 -31 8 -49t35 -43q7 -5 30 -21t73 -42q152 -78 205 -150t50 -187t-88 -194
q-82 -82 -221 -82q-40 0 -92 21t-68 33q-17 12 -20 34l-16 130q-3 18 8 22l37 8q6 2 16 -14l25 -57q58 -111 151 -111q57 1 105 39t47 106q0 158 -150 232q-73 40 -103 56t-69 50q-80 55 -80 166q0 55 25 113q28 55 77 119t50 67q57 86 57 219q0 67 -49 119q-51 51 -145 51
t-162 -102q-38 -79 -40 -119q-3 -41 -6 -56q-5 -25 -5 -108v-420q1 -438 3 -462q2 -23 10 -33t34 -10h65q23 0 23 -17v-33q0 -24 -14 -24t-35 2l-152 4q-13 0 -139 -4l-94 -2q-17 0 -17 14z" />
    <glyph glyph-name="agrave" unicode="&#xe0;" horiz-adv-x="874" 
d="M274 1323q48 0 86 -51l197 -244q3 -8 -2 -10l-25 -23q-6 -6 -12 0l-270 193q-52 40 -37 88t63 47zM539 199v252q-33 -19 -109 -57t-122 -87q-44 -49 -44 -114t30 -93t76 -28q48 0 109 43q60 48 60 84zM697 -25q-111 0 -142 138h-4q-66 -78 -203 -125q-44 -13 -121 -13
q-43 0 -83 40t-40 130q0 160 205 248q198 87 232 119v131q-9 91 -29 115q-38 45 -124 45t-132 -43q-14 -14 -14 -27q-4 -7 0 -35t4 -32q0 -117 -109 -117q-49 1 -49 59t41 112t100 87q123 72 239 72t175 -56q45 -45 45 -145v-434q0 -154 62 -154q49 0 71 31q11 14 21 8
l20 -16q13 -13 -2 -37q-52 -101 -163 -101z" />
    <glyph glyph-name="aacute" unicode="&#xe1;" horiz-adv-x="874" 
d="M608 1323q44 0 64 -45q12 -49 -41 -90l-269 -193q-6 -6 -12 0l-24 21q-6 6 0 12l196 244q42 51 86 51zM539 199v252q-33 -19 -109 -57t-122 -87q-44 -49 -44 -114t30 -93t76 -28q48 0 109 43q60 48 60 84zM697 -25q-111 0 -142 138h-4q-66 -78 -203 -125
q-44 -13 -121 -13q-43 0 -83 40t-40 130q0 160 205 248q198 87 232 119v131q-9 91 -29 115q-38 45 -124 45t-132 -43q-14 -14 -14 -27q-4 -7 0 -35t4 -32q0 -117 -109 -117q-49 1 -49 59t41 112t100 87q123 72 239 72t175 -56q45 -45 45 -145v-434q0 -154 62 -154
q49 0 71 31q11 14 21 8l20 -16q13 -13 -2 -37q-52 -101 -163 -101z" />
    <glyph glyph-name="acircumflex" unicode="&#xe2;" horiz-adv-x="874" 
d="M427 1325q10 0 24 -20l225 -269q10 -10 4 -16l-16 -19q-7 -11 -19 -2l-223 158l-207 -156q-11 -9 -18 -2l-19 19q-6 6 6 20l215 269q18 18 28 18zM539 199v252q-33 -19 -109 -57t-122 -87q-44 -49 -44 -114t30 -93t76 -28q48 0 109 43q60 48 60 84zM697 -25
q-111 0 -142 138h-4q-66 -78 -203 -125q-44 -13 -121 -13q-43 0 -83 40t-40 130q0 160 205 248q198 87 232 119v131q-9 91 -29 115q-38 45 -124 45t-132 -43q-14 -14 -14 -27q-4 -7 0 -35t4 -32q0 -117 -109 -117q-49 1 -49 59t41 112t100 87q123 72 239 72t175 -56
q45 -45 45 -145v-434q0 -154 62 -154q49 0 71 31q11 14 21 8l20 -16q13 -13 -2 -37q-52 -101 -163 -101z" />
    <glyph glyph-name="atilde" unicode="&#xe3;" horiz-adv-x="874" 
d="M672 1243h35q15 -1 3 -49t-51 -98q-42 -45 -96 -45q-54 1 -141 29q-86 28 -128 28q-76 0 -95 -86q-3 -10 -15 -10h-37q-15 0 -6 35q15 78 58 124t97 46t152 -30t142 -30q52 0 67 74q3 12 15 12zM539 199v252q-33 -19 -109 -57t-122 -87q-44 -49 -44 -114t30 -93t76 -28
q48 0 109 43q60 48 60 84zM697 -25q-111 0 -142 138h-4q-66 -78 -203 -125q-44 -13 -121 -13q-43 0 -83 40t-40 130q0 160 205 248q198 87 232 119v131q-9 91 -29 115q-38 45 -124 45t-132 -43q-14 -14 -14 -27q-4 -7 0 -35t4 -32q0 -117 -109 -117q-49 1 -49 59t41 112
t100 87q123 72 239 72t175 -56q45 -45 45 -145v-434q0 -154 62 -154q49 0 71 31q11 14 21 8l20 -16q13 -13 -2 -37q-52 -101 -163 -101z" />
    <glyph glyph-name="adieresis" unicode="&#xe4;" horiz-adv-x="874" 
d="M608 1305q44 0 74 -27q27 -30 27 -71t-27 -68q-28 -25 -64 -25t-70 23q-36 23 -36 62t25 75q27 31 71 31zM166 1200q0 40 26 72t68 33q42 0 76 -27q26 -32 26 -71t-26 -68q-32 -25 -68 -25t-67 25q-35 21 -35 61zM539 199v252q-33 -19 -109 -57t-122 -87
q-44 -49 -44 -114t30 -93t76 -28q48 0 109 43q60 48 60 84zM697 -25q-111 0 -142 138h-4q-66 -78 -203 -125q-44 -13 -121 -13q-43 0 -83 40t-40 130q0 160 205 248q198 87 232 119v131q-9 91 -29 115q-38 45 -124 45t-132 -43q-14 -14 -14 -27q-4 -7 0 -35t4 -32
q0 -117 -109 -117q-49 1 -49 59t41 112t100 87q123 72 239 72t175 -56q45 -45 45 -145v-434q0 -154 62 -154q49 0 71 31q11 14 21 8l20 -16q13 -13 -2 -37q-52 -101 -163 -101z" />
    <glyph glyph-name="aring" unicode="&#xe5;" horiz-adv-x="874" 
d="M420 1063q92 0 92 98q0 39 -24 65t-62 25q-38 0 -70 -26q-26 -33 -26 -72t24 -65t66 -25zM416 1014q-89 0 -138 40t-49 101q-1 61 55 105t144 43q88 1 136 -39t48 -104t-55 -103q-52 -43 -141 -43zM539 199v252q-33 -19 -109 -57t-122 -87q-44 -49 -44 -114t30 -93
t76 -28q48 0 109 43q60 48 60 84zM697 -25q-111 0 -142 138h-4q-66 -78 -203 -125q-44 -13 -121 -13q-43 0 -83 40t-40 130q0 160 205 248q198 87 232 119v131q-9 91 -29 115q-38 45 -124 45t-132 -43q-14 -14 -14 -27q-4 -7 0 -35t4 -32q0 -117 -109 -117q-49 1 -49 59
t41 112t100 87q123 72 239 72t175 -56q45 -45 45 -145v-434q0 -154 62 -154q49 0 71 31q11 14 21 8l20 -16q13 -13 -2 -37q-52 -101 -163 -101z" />
    <glyph glyph-name="ae" unicode="&#xe6;" horiz-adv-x="1300" 
d="M1059 653q0 54 -39 109q-43 55 -117 55q-152 0 -205 -262l291 35q70 9 70 63zM264 193q0 -121 103 -121q49 0 107 38t97 101q-30 88 -30 227q-3 -2 -55.5 -20.5t-145.5 -85.5q-34 -25 -57 -62q-19 -40 -19 -77zM465 879q175 0 197 -127q64 73 128 100t148 27
q82 0 139 -35q61 -30 95 -86q58 -99 59 -174q0 -42 -51 -45l-490 -43q-4 -28 -4 -70q0 -126 70 -228t194 -102q158 0 238 123q22 29 31 23l22 -13q9 -6 0 -30q-42 -97 -131 -160q-85 -64 -190 -64q-185 0 -320 166h-8q-97 -118 -219 -153q-53 -13 -121 -13t-108 49t-40 132
q0 142 209 241q115 54 171 79.5t59 27.5v133q-1 82 -35 124t-116 42t-136 -41q-26 -26 -14 -72q4 -32 4 -35q0 -106 -101 -106q-57 0 -57 55q0 117 143 205q107 70 234 70z" />
    <glyph glyph-name="ccedilla" unicode="&#xe7;" horiz-adv-x="854" 
d="M72 416q0 172 123 318t315 145q68 0 133 -19q61 -23 87 -48q58 -55 58 -99q-2 -72 -72 -72t-116 82q-30 59 -62 75t-75 15q-96 1 -169 -83t-73 -243t105 -303q79 -104 223 -104q76 0 125 20q48 20 100 68q8 8 17 0l20 -21q12 -12 0 -26q-96 -110 -252 -137l-98 -123
q48 -14 88 -54q39 -42 39 -86q0 -87 -101 -147q-102 -57 -213 -57q-41 0 -41 41q-1 28 61 28t116 30t55 85q0 80 -135 104l133 172q-184 0 -299 142q-92 125 -92 297z" />
    <glyph glyph-name="egrave" unicode="&#xe8;" horiz-adv-x="872" 
d="M312 1323q48 0 87 -51l197 -244q3 -8 -2 -10l-25 -23q-6 -6 -12 0l-270 193q-52 40 -37 88q14 48 62 47zM561 606q55 0 55 28q0 89 -59 144q-36 39 -103 39t-125 -52t-85 -159h317zM741 545h-505q-7 -31 -7 -99q0 -148 84 -249q81 -103 207 -103q89 0 156 42t92 97
q6 14 18 11l27 -15q12 -3 0 -30q-35 -78 -121 -154q-86 -70 -205 -70q-218 0 -321 146q-54 79 -72 147t-18 176q0 197 119 316t303 119q80 0 144 -34t95 -87q62 -116 62 -180q0 -34 -58 -33z" />
    <glyph glyph-name="eacute" unicode="&#xe9;" horiz-adv-x="872" 
d="M650 1323q47 0 59 -45q17 -46 -39 -90l-269 -193q-6 -6 -12 0l-24 21q-6 6 0 12l196 244q42 51 89 51zM561 606q55 0 55 28q0 89 -59 144q-36 39 -103 39t-125 -52t-85 -159h317zM741 545h-505q-7 -31 -7 -99q0 -148 84 -249q81 -103 207 -103q89 0 156 42t92 97
q6 14 18 11l27 -15q12 -3 0 -30q-35 -78 -121 -154q-86 -70 -205 -70q-218 0 -321 146q-54 79 -72 147t-18 176q0 197 119 316t303 119q80 0 144 -34t95 -87q62 -116 62 -180q0 -34 -58 -33z" />
    <glyph glyph-name="ecircumflex" unicode="&#xea;" horiz-adv-x="872" 
d="M476 1325q10 0 24 -20l225 -269q10 -10 4 -16l-16 -19q-7 -11 -19 -2l-223 158l-207 -156q-11 -9 -18 -2l-19 19q-6 6 6 20l216 269q17 18 27 18zM561 606q55 0 55 28q0 89 -59 144q-36 39 -103 39t-125 -52t-85 -159h317zM741 545h-505q-7 -31 -7 -99q0 -148 84 -249
q81 -103 207 -103q89 0 156 42t92 97q6 14 18 11l27 -15q12 -3 0 -30q-35 -78 -121 -154q-86 -70 -205 -70q-218 0 -321 146q-54 79 -72 147t-18 176q0 197 119 316t303 119q80 0 144 -34t95 -87q62 -116 62 -180q0 -34 -58 -33z" />
    <glyph glyph-name="edieresis" unicode="&#xeb;" horiz-adv-x="872" 
d="M650 1305q44 0 73 -27q27 -30 27 -71t-27 -68q-27 -25 -63 -25t-72 23t-35 62q0 39 25 75q28 31 72 31zM207 1200q-1 41 25 73t68 32t77 -27q26 -32 26 -71t-26 -68q-31 -25 -67 -25t-68 25q-35 20 -35 61zM561 606q55 0 55 28q0 89 -59 144q-36 39 -103 39t-125 -52
t-85 -159h317zM741 545h-505q-7 -31 -7 -99q0 -148 84 -249q81 -103 207 -103q89 0 156 42t92 97q6 14 18 11l27 -15q12 -3 0 -30q-35 -78 -121 -154q-86 -70 -205 -70q-218 0 -321 146q-54 79 -72 147t-18 176q0 197 119 316t303 119q80 0 144 -34t95 -87q62 -116 62 -180
q0 -34 -58 -33z" />
    <glyph glyph-name="igrave" unicode="&#xec;" horiz-adv-x="546" 
d="M120 1323q48 0 87 -51l196 -244q3 -8 -2 -10l-24 -23q-6 -6 -12 0l-271 193q-52 40 -37 88t63 47zM76 -6q-22 0 -23 16v41q0 17 21 17h100q30 0 33 41q2 41 2 186v301q0 52 -21 84q-24 27 -94 39q-18 3 -18 14v19q0 8 14 14q113 43 180 78t80.5 35.5t9.5 -35.5t-4 -324
v-223q0 -162 2 -176q6 -53 33 -53h94q21 0 21 -19v-35q0 -20 -19 -20q-13 0 -36 2l-160 4h-103q-90 -6 -112 -6z" />
    <glyph glyph-name="iacute" unicode="&#xed;" horiz-adv-x="546" 
d="M465 1323q44 0 63 -45q12 -49 -41 -90l-268 -193q-6 -6 -12 0l-25 21q-6 6 0 12l197 244q42 51 86 51zM76 -6q-22 0 -23 16v41q0 17 21 17h100q30 0 33 41q2 41 2 186v301q0 52 -21 84q-24 27 -94 39q-18 3 -18 14v19q0 8 14 14q113 43 180 78t80.5 35.5t9.5 -35.5
t-4 -324v-223q0 -162 2 -176q6 -53 33 -53h94q21 0 21 -19v-35q0 -20 -19 -20q-13 0 -36 2l-160 4h-103q-90 -6 -112 -6z" />
    <glyph glyph-name="icircumflex" unicode="&#xee;" horiz-adv-x="546" 
d="M282 1325q10 0 23 -20l225 -269q10 -10 5 -16l-17 -19q-7 -10 -18 -2l-224 158l-206 -156q-12 -9 -19 -2l-18 19q-8 6 6 20l215 269q18 18 28 18zM76 -6q-22 0 -23 16v41q0 17 21 17h100q30 0 33 41q2 41 2 186v301q0 52 -21 84q-24 27 -94 39q-18 3 -18 14v19q0 8 14 14
q113 43 180 78t80.5 35.5t9.5 -35.5t-4 -324v-223q0 -162 2 -176q6 -53 33 -53h94q21 0 21 -19v-35q0 -20 -19 -20q-13 0 -36 2l-160 4h-103q-90 -6 -112 -6z" />
    <glyph glyph-name="idieresis" unicode="&#xef;" horiz-adv-x="546" 
d="M444 1305q44 0 74 -27q27 -30 27 -71t-27 -68q-28 -25 -64 -25t-70 23q-36 23 -36 62t25 75q27 31 71 31zM2 1200q0 40 26 72t68 33q42 0 76 -27q27 -34 27 -72t-27 -67q-32 -25 -68 -25t-67 25q-35 21 -35 61zM76 -6q-22 0 -23 16v41q0 17 21 17h100q30 0 33 41
q2 41 2 186v301q0 52 -21 84q-24 27 -94 39q-18 3 -18 14v19q0 8 14 14q113 43 180 78t80.5 35.5t9.5 -35.5t-4 -324v-223q0 -162 2 -176q6 -53 33 -53h94q21 0 21 -19v-35q0 -20 -19 -20q-13 0 -36 2l-160 4h-103q-90 -6 -112 -6z" />
    <glyph glyph-name="eth" unicode="&#xf0;" horiz-adv-x="999" 
d="M199 1416q0 10 6 20l18 37q3 8 13 8t14 -2q129 -48 287 -158l219 125q17 8 24 -2l27 -47q9 -16 -6 -25l-199 -108q47 -39 121 -138q162 -209 174 -559q6 -240 -94 -403q-47 -83 -137 -136t-222 -53t-217 68q-151 115 -151 363q0 95 45 198t131 172q130 103 274 103
q99 0 181 -64l4 4q-53 186 -146 301q-22 39 -67 84l-242 -141q-13 -7 -23 6l-28 47q-6 12 6 21l223 123q-103 95 -203 135q-32 11 -32 21zM739 524q1 293 -221 293q-102 0 -184 -76q-54 -50 -76 -133q-29 -86 -29 -208t70 -248q37 -57 85 -86t91 -29q97 0 161 73t81 166
q22 87 22 248z" />
    <glyph glyph-name="ntilde" unicode="&#xf1;" horiz-adv-x="1089" 
d="M791 1243h34q15 1 3 -49t-50 -98q-42 -45 -96 -45q-54 1 -142 29q-87 28 -128 28q-76 0 -95 -86q-3 -10 -14 -10h-37q-15 0 -6 35q16 79 58 125t96 45q54 0 152 -30t143 -30q52 0 67 74q3 12 15 12zM80 12v37q0 19 20 19h60q22 0 33 8q8 12 8 33v479q0 80 -84 121l-17 8
q-16 6 -16 18v10q0 12 18 21l177 98q27 15 39 15t14 -25l14 -125h4q46 57 125 103t172 47q93 0 158 -45q41 -26 77 -90t36 -105v-528q0 -43 45 -43h65q23 0 23 -19v-33q0 -22 -17 -22q-12 0 -28 2l-166 4h-88q-72 -6 -97 -6q-16 0 -16 22v33q0 19 27 19h59q38 0 41 47
q4 144 4 172v270q0 91 -15 127q-15 34 -54 64t-134 30t-172 -80q-47 -53 -47 -139v-424q0 -39 8 -55q12 -12 41 -12h52q20 0 20 -21v-35q1 -18 -13 -18t-28 2l-152 4h-88q-66 -6 -87 -6t-21 18z" />
    <glyph glyph-name="ograve" unicode="&#xf2;" horiz-adv-x="1019" 
d="M346 1323q48 0 86 -51l197 -244q3 -8 -2 -10l-25 -23q-6 -6 -12 0l-271 193q-53 40 -37 88t64 47zM511 37q122 0 194 119q71 124 71 284t-88 269q-88 108 -184 108q-94 0 -155 -64q-61 -65 -85 -135t-24 -170t14 -174q19 -66 63 -131q72 -106 194 -106zM948 434
q0 -180 -135 -320t-321 -139q-186 0 -308 142q-72 87 -92 156t-20 168q0 200 176 339q126 99 274 99q80 0 159 -35t128 -84q139 -146 139 -326z" />
    <glyph glyph-name="oacute" unicode="&#xf3;" horiz-adv-x="1019" 
d="M724 1323q46 0 58 -45q17 -46 -39 -90l-268 -193q-6 -6 -12 0l-25 21q-6 6 0 12l197 244q43 51 89 51zM511 37q122 0 194 119q71 124 71 284t-88 269q-88 108 -184 108q-94 0 -155 -64q-61 -65 -85 -135t-24 -170t14 -174q19 -66 63 -131q72 -106 194 -106zM948 434
q0 -180 -135 -320t-321 -139q-186 0 -308 142q-72 87 -92 156t-20 168q0 200 176 339q126 99 274 99q80 0 159 -35t128 -84q139 -146 139 -326z" />
    <glyph glyph-name="ocircumflex" unicode="&#xf4;" horiz-adv-x="1019" 
d="M508 1325q10 0 24 -20l226 -269q10 -10 4 -16l-17 -19q-7 -10 -18 -2l-223 158l-207 -156q-11 -9 -18 -2l-19 19q-6 6 6 20l215 269q17 18 27 18zM511 37q122 0 194 119q71 124 71 284t-88 269q-88 108 -184 108q-94 0 -155 -64q-61 -65 -85 -135t-24 -170t14 -174
q19 -66 63 -131q72 -106 194 -106zM948 434q0 -180 -135 -320t-321 -139q-186 0 -308 142q-72 87 -92 156t-20 168q0 200 176 339q126 99 274 99q80 0 159 -35t128 -84q139 -146 139 -326z" />
    <glyph glyph-name="otilde" unicode="&#xf5;" horiz-adv-x="1019" 
d="M756 1243h35q15 0 3 -52t-53 -95q-37 -45 -93 -45q-56 1 -143 29t-128 28q-76 0 -94 -86q-3 -10 -15 -10h-37q-15 0 -6 35q15 78 58 124t99 46t152 -30t140 -30q52 0 67 74q3 12 15 12zM511 37q122 0 194 119q71 124 71 284t-88 269q-88 108 -184 108q-94 0 -155 -64
q-61 -65 -85 -135t-24 -170t14 -174q19 -66 63 -131q72 -106 194 -106zM948 434q0 -180 -135 -320t-321 -139q-186 0 -308 142q-72 87 -92 156t-20 168q0 200 176 339q126 99 274 99q80 0 159 -35t128 -84q139 -146 139 -326z" />
    <glyph glyph-name="odieresis" unicode="&#xf6;" horiz-adv-x="1019" 
d="M682 1305q44 0 74 -27q26 -29 26 -71t-26 -68q-28 -25 -64 -25t-70 23q-36 23 -36 63t24 74q28 31 72 31zM240 1200q0 42 26 73q26 32 68 32t76 -27q26 -32 26 -71t-26 -68q-31 -25 -68 -25t-68 25q-34 19 -34 61zM511 37q122 0 194 119q71 124 71 284t-88 269
q-88 108 -184 108q-94 0 -155 -64q-61 -65 -85 -135t-24 -170t14 -174q19 -66 63 -131q72 -106 194 -106zM948 434q0 -180 -135 -320t-321 -139q-186 0 -308 142q-72 87 -92 156t-20 168q0 200 176 339q126 99 274 99q80 0 159 -35t128 -84q139 -146 139 -326z" />
    <glyph glyph-name="divide" unicode="&#xf7;" 
d="M627.5 174.5q0.5 -46.5 -33.5 -76.5t-81 -30t-81 30t-33.5 76.5t33.5 75.5q37 29 81 29t79 -29t35.5 -75.5zM513 705q-47 -1 -81 29t-33 78q-1 48 33 75q34 28 81 28t81 -28q34 -27 33 -75q1 -48 -33 -78t-81 -29zM115 549h794v-115h-794v115z" />
    <glyph glyph-name="oslash" unicode="&#xf8;" horiz-adv-x="1019" 
d="M506 817q-94 0 -156 -64q-62 -65 -86 -135t-24 -188t28 -197l430 459q-42 60 -94 90q-49 35 -98 35zM512 37q123 0 195 119q69 120 69 290q0 97 -37 175l-436 -461l10 -19q76 -104 199 -104zM948 427q0 -173 -135 -313t-307 -139q-172 0 -285 101l-84 -90
q-11 -11 -15 -11t-11 7l-27 28q-10 10 -10 16t18 25l78 82q-58 75 -78 143t-20 166q0 205 178 334q130 103 272 103q66 0 136 -27t116 -72l96 90q8 9 12 9t9 -5l39 -34q6 -6 6 -10t-4 -9l-98 -98q114 -123 114 -296z" />
    <glyph glyph-name="ugrave" unicode="&#xf9;" horiz-adv-x="1036" 
d="M294 1323q48 0 87 -51l197 -244q2 -7 -3 -10l-24 -23q-6 -6 -12 0l-271 193q-52 40 -37 88t63 47zM788 854q32 0 50 6h10q21 0 18 -20q-12 -111 -12 -273v-151q0 -184 5 -249t52 -65q40 0 65 6t28 -8l6 -26q3 -15 -11 -19l-215 -71q-24 -9 -40 -9t-19 25l-16 119h-4
q-45 -63 -124 -103t-155 -41q-122 0 -193 95q-57 74 -68 144t-11 257v238q-2 42 -22 58t-60 19t-41 15v37q0 16 22 16h183q22 0 40 6h11q25 0 22 -24q-8 -65 -8 -236v-145q0 -29 -3 -87t13 -141q10 -39 35 -80q53 -77 164 -77q43 0 92 32q56 32 84 70q21 24 21 55v488
q-3 36 -23 53q-24 14 -68 16t-43 17v35q0 6 5 16q14 2 20 2h190z" />
    <glyph glyph-name="uacute" unicode="&#xfa;" horiz-adv-x="1036" 
d="M691 1323q47 0 59 -45q17 -46 -39 -90l-269 -193q-6 -6 -12 0l-24 21q-6 6 0 12l196 244q42 51 89 51zM788 854q32 0 50 6h10q21 0 18 -20q-12 -111 -12 -273v-151q0 -184 5 -249t52 -65q40 0 65 6t28 -8l6 -26q3 -15 -11 -19l-215 -71q-24 -9 -40 -9t-19 25l-16 119h-4
q-45 -63 -124 -103t-155 -41q-122 0 -193 95q-57 74 -68 144t-11 257v238q-2 42 -22 58t-60 19t-41 15v37q0 16 22 16h183q22 0 40 6h11q25 0 22 -24q-8 -65 -8 -236v-145q0 -29 -3 -87t13 -141q10 -39 35 -80q53 -77 164 -77q43 0 92 32q56 32 84 70q21 24 21 55v488
q-3 36 -23 53q-24 14 -68 16t-43 17v35q0 6 5 16q14 2 20 2h190z" />
    <glyph glyph-name="ucircumflex" unicode="&#xfb;" horiz-adv-x="1036" 
d="M517 1325q10 0 24 -20l225 -269q10 -10 4 -16l-16 -19q-7 -11 -19 -2l-223 158l-207 -156q-11 -9 -18 -2l-19 19q-6 6 6 20l215 269q18 18 28 18zM788 854q32 0 50 6h10q21 0 18 -20q-12 -111 -12 -273v-151q0 -184 5 -249t52 -65q40 0 65 6t28 -8l6 -26q3 -15 -11 -19
l-215 -71q-24 -9 -40 -9t-19 25l-16 119h-4q-45 -63 -124 -103t-155 -41q-122 0 -193 95q-57 74 -68 144t-11 257v238q-2 42 -22 58t-60 19t-41 15v37q0 16 22 16h183q22 0 40 6h11q25 0 22 -24q-8 -65 -8 -236v-145q0 -29 -3 -87t13 -141q10 -39 35 -80q53 -77 164 -77
q43 0 92 32q56 32 84 70q21 24 21 55v488q-3 36 -23 53q-24 14 -68 16t-43 17v35q0 6 5 16q14 2 20 2h190z" />
    <glyph glyph-name="udieresis" unicode="&#xfc;" horiz-adv-x="1036" 
d="M690 1305q44 0 74 -27q27 -30 27 -71t-27 -68q-28 -25 -64 -25t-70 23q-36 23 -36 63t24 74q28 31 72 31zM248 1200q0 41 26 73t68 32t76 -27q26 -32 26 -71t-26 -68q-32 -25 -68 -25t-67 25q-35 20 -35 61zM788 854q32 0 50 6h10q21 0 18 -20q-12 -111 -12 -273v-151
q0 -184 5 -249t52 -65q40 0 65 6t28 -8l6 -26q3 -15 -11 -19l-215 -71q-24 -9 -40 -9t-19 25l-16 119h-4q-45 -63 -124 -103t-155 -41q-122 0 -193 95q-57 74 -68 144t-11 257v238q0 71 -78 77q-45 6 -45 15v37q0 16 22 16h183q22 0 40 6h11q25 0 22 -24q-8 -65 -8 -236
v-145q0 -29 -3 -87t13 -141q10 -39 35 -80q53 -77 164 -77q43 0 92 32q56 32 84 70q21 24 21 55v488q0 35 -23 55q-23 13 -67 16t-44 15v35q0 6 5 16q14 2 20 2h190z" />
    <glyph glyph-name="yacute" unicode="&#xfd;" horiz-adv-x="892" 
d="M740 1323q44 0 63 -45q12 -49 -41 -90l-268 -193q-6 -7 -13 0l-24 21q-6 6 0 12l196 244q43 51 87 51zM930 860q12 0 12 -16v-39q0 -19 -10 -19h-33q-46 0 -72 -36q-43 -56 -285 -604t-255 -574t-20 -36q-48 -69 -85 -81q-28 -12 -76 -12q-48 1 -78 29t-30 68t28 64
t65 23q37 0 57 -8t41 -14.5t40 12.5q21 27 83 163t81 187q-5 30 -115 358t-128 375q-18 36 -25 48t-27 25t-45 13h-53q-16 0 -16 19v41q0 14 16 14l92 -4q29 -2 96 -2l125 2q43 4 63 4t21 -14v-43q0 -17 -12 -17h-39q-32 0 -28 -38t74 -264t95 -283h9q20 37 112 255t99 253
q18 77 -35 77h-33q-14 0 -14 17v41q0 16 17 16t52 -4l111 -2l76 2q29 4 49 4z" />
    <glyph glyph-name="thorn" unicode="&#xfe;" horiz-adv-x="1050" 
d="M330 209q0 -89 43 -113q94 -55 197 -55t175 84.5t72 260.5q-1 176 -67 287t-203 111t-217 -135v-440zM47 -563q-18 0 -18 18v37q0 16 24 16h70q28 0 40 10q11 10 15 58t4 342v389l-4 699q3 199 -84 223l-35 10q-12 3 -12 16v15q0 8 14 14l205 98q46 17 47 17q19 0 19 -41
l-2 -621h4q114 142 289 142q79 0 135 -23q54 -17 112 -84q6 -6 19 -17.5t16 -21.5q28 -28 31 -45l12 -26q10 -20 10 -37q10 -29 17 -97v-65q0 -214 -123 -352q-127 -136 -311 -136q-134 0 -211 39v-446q0 -60 51 -60h84q18 0 18 -20v-33q1 -18 -15 -18t-34 2l-180 4l-178 -4
q-16 -2 -29 -2z" />
    <glyph glyph-name="ydieresis" unicode="&#xff;" horiz-adv-x="892" 
d="M563 1200q0 40 26 72t70 33q44 0 74 -27q27 -30 27 -71t-27 -68q-27 -25 -63 -25t-72 23t-35 63zM314 1305q44 0 72 -28t28 -70q0 -41 -27 -67t-63 -26t-71 24q-36 24 -36 62t25 74q28 31 72 31zM930 860q12 0 12 -16v-39q0 -19 -10 -19h-33q-46 0 -72 -36
q-43 -56 -285 -604t-255 -574t-20 -36q-48 -69 -85 -81q-28 -12 -76 -12q-48 1 -78 29t-30 68t28 64t65 23q37 0 57 -8t41 -14.5t40 12.5q21 27 83 163t81 187q-7 39 -117 365t-126 368q-20 43 -39 66q-20 20 -58 20h-53q-16 0 -16 19v41q0 14 16 14l92 -4q29 -2 96 -2
l125 2q43 4 63 4t21 -14v-43q0 -17 -12 -17h-39q-32 0 -28 -38t74 -264t95 -283h9q20 37 112 255t99 253q18 77 -35 77h-33q-14 0 -14 17v41q0 16 17 16t52 -4l111 -2l76 2q29 4 49 4z" />
  </font>
</defs>
</svg>
