<?xml version="1.0" standalone="no"?>
<!DOCTYPE svg PUBLIC "-//W3C//DTD SVG 1.1//EN" "http://www.w3.org/Graphics/SVG/1.1/DTD/svg11.dtd" >
<svg xmlns="http://www.w3.org/2000/svg">
<metadata></metadata>
<defs>
<font id="acaslonsemibold" horiz-adv-x="1024" >
<font-face units-per-em="2048" ascent="1638" descent="-410" />
<missing-glyph horiz-adv-x="430" />
<glyph unicode="Th" horiz-adv-x="860" d="M0 0v860h860v-860h-860z" />
<glyph unicode="&#xfb01;" horiz-adv-x="1130" d="M41 10v47q0 12 20 13h91q45 0 45 69l-2 613h-134q-12 0 -12 16l10 72q2 14 27 14h109v37q0 285 170 446q156 143 364 144q102 0 168 -42t66 -106q0 -47 -36 -80.5t-83 -33.5q-80 0 -144 94q-51 66 -98 65q-76 0 -123 -53q-12 -16 -22.5 -32.5t-17.5 -40t-12 -40t-8 -47 t-5 -46t-3 -53.5t-1 -52.5v-59.5v-57v-43h280q109 -4 197 14q14 2 32.5 4t31 4.5t18.5 2.5q23 0 16 -27q-8 -33 -8 -332v-221v-176q6 -53 41 -53h74q20 0 20 -19v-37q0 -20 -20 -20q-4 0 -32 1t-76 3t-101 2q-49 0 -95.5 -2t-75 -3t-34.5 -1q-16 0 -16 16v43q0 16 20 17h39 q33 0 39 45q2 33 2 180v328q0 70 -19.5 99.5t-91.5 29.5h-241v-179q0 -418 2 -446q4 -57 47 -57h49q25 0 24 -19v-37q0 -20 -16 -20q-2 0 -27.5 1t-77 3t-112.5 2q-57 0 -113.5 -2t-90.5 -3t-38 -1q-16 0 -16 16z" />
<glyph unicode="&#xfb02;" horiz-adv-x="1116" d="M39 10v47q0 12 20 13h86q49 0 50 65l-2 617h-134q-12 0 -12 16l12 70q4 16 25 16h109v37q0 291 141 438q145 152 364 152q141 0 242 -37q47 -18 45 -49q-10 -123 -10 -600v-295q0 -303 4 -365q2 -66 51 -65h74q25 0 24 -19v-37q0 -20 -12 -20q-2 0 -32.5 1t-86 3t-115 2 t-111.5 -2t-80.5 -3t-33.5 -1q-16 0 -16 20v39q0 16 25 17h45q51 0 51 69l-2 613h-352v-179q0 -418 2 -446q4 -57 39 -57h65q20 0 21 -19v-37q0 -20 -13 -20q-2 0 -30.5 1t-83 3t-119.5 2q-55 0 -109.5 -2t-87.5 -3t-37 -1q-16 0 -16 16zM408 854h352v283q0 104 -11.5 149 t-39.5 66q-41 27 -97 26q-98 0 -143 -61q-29 -39 -43 -111.5t-16 -132t-2 -176.5v-43z" />
<glyph unicode="&#xfb03;" horiz-adv-x="1691" d="M43 14v43q0 12 20 13h82q51 0 52 69l-2 613h-132q-18 0 -14 22l8 68q2 12 23 12h115v55q0 236 155 398q154 147 340 147q70 0 134.5 -29.5t90.5 -76.5l5 -2q156 135 368 135q106 0 174 -43t68 -109q0 -45 -37 -77.5t-86 -32.5q-72 0 -143 90q-43 66 -103 65 q-74 0 -127 -69q-29 -37 -42 -110t-14 -117t-1 -156v-68h274q129 0 197 14q74 8 82 9q18 0 16 -25q-4 -33 -4 -332v-221v-176q0 -53 37 -53h74q20 0 20 -17v-39q0 -20 -16 -20q-4 0 -33 1t-77 3t-99 2t-97 -2t-74 -3t-34 -1q-16 0 -16 20v39q0 16 20 17h41q37 0 37 45 q4 33 4 180v332q0 72 -33.5 98.5t-121.5 26.5h-197v-625q0 -57 45 -57h53q25 0 25 -19v-33q0 -25 -17 -24q-2 0 -27.5 1t-69.5 3t-91 2q-45 0 -97.5 -2t-88 -3t-39.5 -1q-16 0 -17 20v43q0 12 21 13h37q51 0 51 69l-2 613h-350v-179q0 -428 2 -446q6 -57 57 -57h41 q20 0 20 -15v-37q0 -25 -12 -24q-2 0 -30.5 1t-78 3t-104.5 2t-112.5 -2t-93.5 -3t-40 -1q-16 0 -16 20zM410 854h350v55q0 193 78 328l-2 4q-96 -4 -154 66q-35 45 -90 45q-86 0 -131 -66q-10 -12 -17.5 -27.5t-12.5 -36t-9 -37t-6 -42t-4 -41t-2 -45v-41.5v-43v-39v-80z " />
<glyph unicode="&#xfb04;" horiz-adv-x="1681" d="M43 10v47q0 12 20 13h82q51 0 52 69l-2 613h-132q-18 0 -14 20l8 70q2 12 23 12h115v55q0 242 155 398q154 147 340 147q70 0 133.5 -27.5t94.5 -78.5h6q147 133 340 133q137 0 241 -35q43 -14 41 -51q-8 -119 -8 -600v-295q0 -303 4 -365q0 -66 49 -65h78q25 0 25 -19 v-37q0 -20 -17 -20q-2 0 -32.5 1t-85 3t-111.5 2q-59 0 -111.5 -2t-81 -3t-32.5 -1q-16 0 -17 20v39q0 16 25 17h45q49 0 51 69q2 29 2 549v64h-352v-625q0 -57 53 -57h49q25 0 25 -19v-37q0 -20 -17 -20q-2 0 -28.5 1t-69.5 3t-86 2q-49 0 -103.5 -2t-90 -3t-39.5 -1 q-16 0 -17 16v47q0 12 21 13h37q51 0 51 69l-2 613h-350v-179v-446q10 -57 59 -57h41q20 0 20 -19v-37q0 -20 -12 -20q-2 0 -30.5 1t-78 3t-104.5 2t-112.5 -2t-93.5 -3t-40 -1q-16 0 -16 16zM410 854h350v55q0 207 78 332l-2 4q-94 -6 -154 62q-35 45 -90 45 q-86 0 -131 -66q-10 -12 -17.5 -26.5t-12.5 -35t-9 -37t-6 -42t-4 -40.5t-2 -46v-42v-43v-40v-80zM975 854h354q0 236 -2 307q-2 168 -55 203q-45 33 -90 33q-98 0 -146 -60q-29 -37 -43 -104.5t-16 -122.5t-2 -168v-45v-43z" />
<glyph horiz-adv-x="2048" />
<glyph horiz-adv-x="2048" />
<glyph unicode="&#xd;" horiz-adv-x="681" />
<glyph unicode=" "  horiz-adv-x="430" />
<glyph unicode="&#x09;" horiz-adv-x="430" />
<glyph unicode="&#xa0;" horiz-adv-x="430" />
<glyph unicode="!" horiz-adv-x="528" d="M129 106q0 43 35 85t104 42q55 0 93 -38.5t38 -96.5q0 -55 -36 -89t-97 -34q-55 0 -96 33t-41 98zM135 1243q0 68 33 112t94 44q63 0 98 -35t33 -104q0 -37 -49 -378t-53 -446q-1 -16 -17 -16h-36q-12 0 -13 20q-6 102 -48 432t-42 371z" />
<glyph unicode="&#x22;" horiz-adv-x="761" d="M102 1374q0 45 30 76t81 31t78.5 -30t27.5 -73q0 -31 -33.5 -219.5t-39.5 -251.5h-70q-4 68 -39 255.5t-35 211.5zM442 1374q0 45 30 76t81 31t78.5 -30t27.5 -73q0 -31 -33.5 -219.5t-39.5 -251.5h-70q-4 68 -39 255.5t-35 211.5z" />
<glyph unicode="#" d="M-20 414l24 118q4 12 25 13h215l63 295h-205q-29 0 -28 12l20 123q6 12 29 12h209l88 391q4 20 16 21h111q12 0 8 -25l-86 -387h205l82 387q4 25 20 25h111q6 2 8 -6.5t0 -18.5l-82 -387h215q20 0 21 -12l-25 -123q-4 -12 -29 -12h-209l-63 -295h215q25 0 25 -17 l-25 -122q-4 -8 -29 -9h-215l-86 -403q-6 -25 -20 -25h-111q-14 0 -8 25l86 403h-205l-86 -399q-6 -29 -20 -29h-111q-14 0 -8 29l90 399h-223q-12 0 -12 17zM381 545h201l63 295h-201z" />
<glyph unicode="$" d="M106 123q4 27 16.5 169t16.5 167q0 16 13 16l41 -4q12 0 12 -12q0 -115 45 -201q53 -80 115 -111l16 480q-98 27 -168 90q-98 92 -98 258q0 162 131 270q70 55 151 70l4 115q0 20 13 20h41q16 0 16 -20l-4 -107q41 4 111 -4v111q0 20 16 20h41q12 0 12 -25l-4 -118 q55 -10 102 -29q23 -6 37 4l21 25q12 8 28.5 8t16.5 -25q0 -51 2 -172t2 -135q0 -16 -8 -16l-37 -4q-12 0 -12 4q-29 129 -78 184q-39 48 -70 66l-16 -435q143 -39 215 -126t72 -246q0 -129 -83 -233.5t-225 -131.5v-111q0 -20 -16 -20h-37q-16 0 -16 20l4 103 q-57 -10 -111 8l-4 -111q0 -20 -16 -20h-41q-12 0 -13 20l5 123q-55 14 -132 66q-41 20 -45 20q-14 0 -32 -37q-8 -12 -33 -12q-23 0 -17 29zM287 1036q0 -90 41 -143q16 -21 57 -41l8 385q-106 -53 -106 -201zM434 119q33 -16 111 -8l12 471q-65 16 -106 28zM455 823 q25 -10 106 -24l12 442q-59 26 -106 12zM614 123q131 47 131 221q1 158 -118 213z" />
<glyph unicode="%" horiz-adv-x="1585" d="M43 952q0 188 80 317.5t239 129.5q88 0 150.5 -40t94.5 -107.5t46.5 -135t16.5 -141.5q-4 -207 -86 -320.5t-234 -113.5q-94 0 -159.5 46t-95 117.5t-41 132t-11.5 115.5zM231 950q0 -164 25 -250q14 -41 43.5 -65.5t54.5 -24.5q72 0 103 78q20 66 20 305q0 336 -123 336 q-61 0 -90 -69q-33 -84 -33 -310zM328 23q0 10 14 26l823 1335q6 14 16.5 14.5t16.5 -3.5l51 -29q12 -8 13 -14l-11 -21l-827 -1339q-12 -23 -21 -23q-10 0 -18 6l-43 31q-14 10 -14 17zM915 393q0 188 80 317.5t240 129.5q88 0 150.5 -40t94 -107.5t46 -135.5t16.5 -141 q-4 -207 -85.5 -320.5t-233.5 -113.5q-94 0 -160 46t-95.5 117.5t-41 132t-11.5 115.5zM1104 391q0 -164 24 -250q14 -41 44 -65.5t55 -24.5q72 0 102 78q20 68 21 305q0 336 -123 336q-61 0 -90 -70q-33 -84 -33 -309z" />
<glyph unicode="&#x26;" horiz-adv-x="1798" d="M74 328q0 197 172 344q82 82 221 155q-209 135 -209 275q0 119 122 233.5t243 114.5q141 0 236 -88t91 -195q-2 -80 -77.5 -159.5t-159.5 -118.5q109 -49 220 -155.5t197 -229.5q51 66 100.5 162t51.5 149q4 25 -13.5 43.5t-47.5 18.5h-33q-12 0 -12 16v45q0 14 12 14 q2 0 85 -3t136 -3q33 0 82 2t86 3t41 1q16 0 16 -16v-43q0 -16 -16 -16h-33q-63 0 -91 -10.5t-48 -43.5q-2 -2 -36 -55t-69.5 -107.5t-82 -121t-74.5 -105.5q8 -8 71.5 -80.5t92.5 -99.5q121 -135 241 -135q129 0 217 147q11 10 17 4l37 -24q8 0 0 -17q-16 -33 -45 -70.5 t-77 -83.5t-124 -76t-164 -30q-41 0 -81 8.5t-67.5 17.5t-63.5 33.5t-52.5 35t-50 47t-41 44t-43 50.5t-35.5 45q-6 -6 -36 -40t-42 -47t-46 -44t-56.5 -46.5t-60.5 -39t-72.5 -34.5t-81 -20.5t-93.5 -9.5q-184 0 -319 106.5t-135 252.5zM311 401.5q2 -118.5 98.5 -199.5 t196.5 -81q68 0 125 17.5t108.5 57.5t70 57t61.5 62q-88 133 -209 264.5t-238 198.5q-84 -47 -149.5 -152.5t-63.5 -224zM463 1147q0 -55 56 -114.5t132 -102.5q2 2 13.5 12t14.5 13l14.5 14.5t16.5 17.5t14 19.5t13 24.5t11.5 27.5t10.5 33t5 36.5t2 43q0 70 -40 133.5 t-103 63.5q-74 0 -117 -66.5t-43 -154.5z" />
<glyph unicode="'" horiz-adv-x="413" d="M98 1374q0 45 30 76t81 31t78.5 -30t27.5 -73q0 -31 -33.5 -219.5t-39.5 -251.5h-70q-4 68 -39 255.5t-35 211.5z" />
<glyph unicode="(" horiz-adv-x="671" d="M94 588q0 285 148 561q104 201 286 364q23 16 41 17q12 0 26.5 -11.5t14.5 -17.5q0 -16 -20 -37q-283 -327 -283 -872q0 -557 287 -877q16 -25 16 -37q0 -10 -14 -21t-27 -11q-18 0 -41 16q-193 168 -303 373q-131 242 -131 553z" />
<glyph unicode=")" horiz-adv-x="671" d="M61 -322q0 12 21 33q283 336 283 877q0 270 -75 495.5t-212 376.5q-16 25 -17 37q0 10 14.5 21.5t26.5 11.5q18 0 41 -17q193 -168 303 -372q131 -242 132 -549q0 -289 -148 -565q-104 -201 -287 -365q-23 -16 -41 -16q-12 0 -26.5 11t-14.5 21z" />
<glyph unicode="*" horiz-adv-x="671" d="M39 1031.5q6 31.5 37 51.5q35 20 229 62v8q-23 8 -118 27.5t-101 21.5q-35 8 -47 42t4 61q18 35 49 44t58 -8q14 -8 53 -47t75.5 -77.5t40.5 -42.5l9 4q-70 209 -70 229q0 74 78 74t78 -70q0 -25 -31 -123t-39 -110l8 -9q8 12 78 87t86 85q66 33 102 -28q16 -35 8 -62.5 t-36 -44.5q-16 -8 -118.5 -28.5t-115.5 -20.5v-8q2 0 57.5 -12.5t114 -26.5t74.5 -23q23 -12 32 -36.5t-11 -69.5q-18 -27 -51 -32t-60 12q-18 14 -87 89t-73 83l-8 -9l8 -22q8 -25 18.5 -51.5t19.5 -58t16.5 -58.5t7.5 -39q0 -31 -19.5 -54.5t-58.5 -23.5q-35 0 -56.5 22.5 t-21.5 55.5q0 49 68 229l-9 4q-6 -8 -38.5 -47t-65.5 -73.5t-53 -51.5q-31 -23 -60.5 -17.5t-46.5 32.5q-20 29 -14 60.5z" />
<glyph unicode="+" d="M111 426v135h327v344h148v-344h327v-135h-327v-348h-148v348h-327z" />
<glyph unicode="," horiz-adv-x="548" d="M102 -352q0 12 17 28q152 127 151 258q0 23 -13 40.5t-28 21.5l-10 4q-10 4 -16 6t-18.5 9.5t-20.5 13.5t-18.5 16t-16.5 22.5t-10 29t-4 34.5q0 57 37 96t98 39q76 0 134 -65.5t58 -167.5q0 -76 -33.5 -147.5t-85 -122t-89 -79t-66.5 -44.5q-37 -12 -41 -13 q-25 0 -25 21z" />
<glyph unicode="-" horiz-adv-x="823" d="M102 494v106q0 16 17 16h573q25 0 25 -20v-96q0 -18 -25 -19h-573q-16 0 -17 13z" />
<glyph unicode="." horiz-adv-x="548" d="M131 119q0 47 37 91t111 44q57 0 98 -40t41 -103q0 -59 -39 -97.5t-96 -38.5q-61 0 -106.5 37t-45.5 107z" />
<glyph unicode="/" horiz-adv-x="745" d="M12 12q-12 6 0 33l606 1430q6 18 25 12l86 -37q18 -6 4 -33l-608 -1435q-9 -17 -23 -11z" />
<glyph unicode="0" d="M57 621q0 350 125 564t338 214q125 0 216 -64.5t139.5 -172t70 -223.5t21.5 -241q0 -350 -115 -539.5t-328 -189.5q-125 0 -220 65.5t-146.5 168t-76 209t-24.5 209.5zM303 653q0 -313 49 -438q59 -164 172 -164t156 139q45 135 45 549q0 254 -53.5 416t-151.5 162 q-102 0 -151 -131q-66 -190 -66 -533z" />
<glyph unicode="1" d="M135 1116q-6 12 12 25l471 245q25 12 37 13q16 0 17 -33q0 -4 -1 -43t-2 -100.5t-2 -135t-2 -160.5t-1 -161v-86q0 -41 2 -259t2 -226q0 -80 18.5 -99.5t104.5 -19.5h73q20 0 21 -15v-51q0 -16 -21 -16q-6 0 -157.5 3t-169.5 3q-25 0 -181.5 -3t-158.5 -3q-16 0 -17 14 v53q0 14 23 15h80q94 0 117.5 16.5t25.5 95.5q4 57 4 426v404q0 106 -49 106q-37 0 -86 -16l-123 -37q-14 -8 -20 4z" />
<glyph unicode="2" d="M2 4q-6 23 12 41q295 281 418 422q223 268 217 502q-6 121 -72.5 192.5t-173.5 69.5q-156 -4 -253 -172q-10 -20 -25 -12l-33 16q-8 8 0 29q129 307 426 307q154 0 265.5 -107.5t111.5 -263.5q0 -133 -65.5 -262t-217.5 -283q-78 -78 -195.5 -181t-127.5 -114h377 q63 0 111 27t70.5 53.5t51.5 75.5q10 16 15.5 18.5t21.5 -6.5q29 -12 20 -32l-139 -353q-8 -18 -13 -19t-16 -1q-14 0 -18 3t-10 17q-14 29 -123 29h-447q-14 0 -40.5 -1t-40.5 -1q-53 -4 -82 -4q-16 0 -25 10z" />
<glyph unicode="3" d="M47 133q0 90 78 98q74 0 115 -98q33 -78 159 -78q113 0 185.5 83t72.5 194q0 291 -286 356q-29 10 -35 14.5t-6 22.5q0 16 6 22.5t22 10.5q115 23 186.5 96.5t71.5 187.5q0 84 -51 146.5t-137 62.5q-174 0 -250 -204q-10 -25 -24 -25l-37 12q-14 6 -8 33 q27 127 129 229.5t272 102.5q160 0 244 -86t88 -191q0 -201 -246 -348q123 -27 219 -125t96 -225q0 -188 -158.5 -321.5t-390.5 -133.5q-164 0 -239.5 53.5t-75.5 110.5z" />
<glyph unicode="4" d="M16 381q0 25 29 61l705 924q25 33 49 33q29 0 28 -68v-815h144q25 0 24 -20v-127q0 -20 -32 -21h-136v-319q0 -29 -28 -29h-168q-16 0 -20.5 4t-4.5 21v323h-540q-49 0 -50 33zM213 525.5q4 -13.5 29 -13.5h364v485q0 23 -11 27t-26 -14l-344 -453q-16 -18 -12 -31.5z " />
<glyph unicode="5" d="M49 84q0 31 15.5 48.5t37.5 17.5q37 -4 111 -46q66 -35 147 -34q111 0 205 78.5t94 216.5q0 203 -165 276q-117 51 -252 51h-37q-25 0 -21 33l74 610q4 20 9 26.5t24 6.5h457q51 0 72.5 20.5t53.5 81.5q10 20 33 9q25 -12 21 -29l-74 -250q-10 -25 -25.5 -33t-60.5 -8 h-440l-37 -260q37 4 128 -7t146 -28q139 -43 218 -143t79 -248q2 -211 -158.5 -357.5t-396.5 -146.5q-104 0 -181 35t-77 80z" />
<glyph unicode="6" d="M70 485q0 195 77.5 369t212.5 303q158 147 357 221q76 20 86 20.5t19 -8t9 -16.5q0 -31 -32 -41q-139 -55 -280.5 -220t-180.5 -363l6 -9q94 86 246 86q176 0 268 -114.5t92 -251.5q0 -238 -131 -361q-131 -131 -315 -131q-201 0 -303 127q-131 156 -131 389zM311 403 q0 -53 7.5 -104t27 -114.5t64.5 -102.5t110 -39q29 0 55.5 10t61.5 39t55.5 101.5t20.5 179.5q0 147 -55.5 245.5t-153.5 98.5q-109 0 -152 -66q-41 -49 -41 -248z" />
<glyph unicode="7" d="M81 1052.5q-1 4.5 5 20.5l127 357q6 16 33 16q31 0 24 -37q-4 -23 19.5 -32t99.5 -9h598q20 0 20.5 -20.5t-28.5 -57.5q-166 -301 -250 -508q-162 -397 -237 -678q-37 -135 -148 -135q-45 0 -73.5 30t-28.5 75q0 72 77 217q16 29 232.5 403.5t271.5 472.5h-479 q-59 0 -97 -16t-54.5 -35.5t-53.5 -71.5q-14 -18 -41 -4q-16 8 -17 12.5z" />
<glyph unicode="8" d="M102 1006q0 143 123 268t336 125q150 0 255.5 -83t105.5 -190q0 -129 -57.5 -214t-213.5 -183q141 -74 214 -164t73 -227q0 -135 -120 -252t-306 -117q-203 0 -300 87t-97 202q0 127 66.5 216t199.5 169q-143 92 -211 170t-68 193zM283 301q0 -121 73.5 -187.5 t159.5 -66.5q100 0 156.5 61.5t56.5 178.5q0 96 -64 162.5t-214 148.5q-76 -47 -122 -125t-46 -172zM324 1057q0 -90 53 -146.5t196 -140.5q166 111 172 293q4 104 -55 175t-153 71q-98 0 -155.5 -74t-57.5 -178z" />
<glyph unicode="9" d="M74 940q0 86 46 190.5t105 157.5q123 111 279 111q119 0 195.5 -35t142.5 -115q113 -139 112 -321q0 -219 -84 -424t-252 -346q-154 -125 -315 -176q-6 -2 -20.5 -5.5t-24.5 -5.5t-16 -2q-33 0 -33 33q0 18 20 33q147 55 282.5 219t164.5 377l-8 4q-86 -78 -234 -78 q-180 0 -270 117t-90 266zM303 1004q0 -147 61.5 -246t151.5 -99q109 0 156 78q33 47 33 232q0 356 -193 356q-94 0 -151.5 -85t-57.5 -236z" />
<glyph unicode=":" horiz-adv-x="548" d="M131 119q0 47 37 91t111 44q57 0 98 -40t41 -103q0 -59 -39 -97.5t-96 -38.5q-61 0 -106.5 37t-45.5 107zM131 743q0 47 37 91.5t111 44.5q57 0 98 -40t41 -104q0 -59 -39 -97t-96 -38q-61 0 -106.5 37t-45.5 106z" />
<glyph unicode=";" horiz-adv-x="548" d="M102 -365q0 12 17 29q151 139 151 258q0 23 -13 40.5t-28 21.5l-10 4q-10 4 -16 6t-18.5 9t-20.5 13.5t-18.5 16.5t-16.5 22.5t-10 28.5t-4 35q0 57 36.5 98t98.5 41q76 0 134 -66.5t58 -171.5q0 -76 -33.5 -147.5t-85 -121.5t-89 -78.5t-66.5 -45.5q-37 -12 -41 -12 q-25 0 -25 20zM119 743q0 47 37 91.5t110 44.5q57 0 98.5 -40.5t41.5 -103.5q0 -59 -40 -97t-100 -38q-61 0 -104 37t-43 106z" />
<glyph unicode="&#x3c;" d="M172 455v77l631 373v-151l-438 -250v-8l438 -263v-155z" />
<glyph unicode="=" d="M111 287v135h802v-135h-802zM111 596v135h802v-135h-802z" />
<glyph unicode="&#x3e;" d="M221 78v151l438 250v13l-438 258v155l631 -377v-77z" />
<glyph unicode="?" horiz-adv-x="770" d="M98 1292q0 41 28 74t83 33q143 0 319.5 -179.5t176.5 -361.5q0 -66 -18.5 -115t-55.5 -77.5t-70 -46t-89 -23.5t-83 -7t-78 -1q-16 0 -16 -17v-188q0 -12 -12 -12h-45q-17 0 -17 12v401q0 27 29 21q41 -4 131 -4q74 0 137.5 34.5t63.5 116.5q0 45 -32 88t-79 68 q-106 70 -225 70q-63 0 -105.5 31.5t-42.5 82.5zM143 94q0 49 36 86t100 37q53 0 92 -36t39 -87t-35 -85t-101 -34q-61 0 -96 32t-35 87z" />
<glyph unicode="@" horiz-adv-x="1630" d="M49 543q0 236 135 455t355.5 351t459.5 132q283 0 432.5 -145.5t149.5 -401.5q0 -215 -170 -394.5t-436 -179.5q-37 0 -61.5 20.5t-24.5 49.5q0 57 61 225l-8 4q-215 -299 -405 -299q-47 0 -81 33t-34 94q0 129 91 287t225 267.5t249 109.5q90 0 115 -74l28 41 q8 12 21 12h115q23 0 12 -28q-16 -29 -67.5 -159t-67.5 -185q-74 -197 -74 -271q0 -41 53 -41q90 0 194.5 138.5t104.5 371.5q0 219 -115.5 331t-326.5 112q-201 0 -376 -124t-272.5 -313.5t-97.5 -386.5q0 -244 144.5 -382t372.5 -134q233 0 368 70q18 10 25 0l16 -37 q8 -10 -12 -20q-66 -43 -186.5 -73t-243.5 -30q-313 0 -490.5 159t-177.5 415zM618 541q1 -66 50 -66q57 0 173.5 139.5t145.5 208.5q49 104 49 160q0 43 -19.5 70.5t-53.5 27.5q-74 0 -158 -103.5t-135.5 -230t-51.5 -206.5z" />
<glyph unicode="A" horiz-adv-x="1523" d="M-33 20v39q0 16 13 17h61q78 0 131 92q16 29 100 241t129 336q57 164 201 537q7 37 7 54q0 12 -3 16q-12 12 -12 24q0 16 20 21q47 12 115 47t88.5 55.5t30.5 20.5q12 0 24 -37q16 -59 115.5 -353t118.5 -364q39 -129 113.5 -343t95.5 -253q49 -94 131 -94h65 q16 0 17 -15v-43q0 -24 -19 -24h-2q-10 0 -39.5 1t-97 3t-166.5 2q-102 0 -191 -3t-95 -3q-20 0 -21 24v41q0 16 16 17h54q43 0 57 17.5t4 58.5q-23 104 -123 411h-475q-115 -330 -127 -395q-4 -16 -4 -43q0 -20 21.5 -34.5t52.5 -14.5h86q20 0 20 -10v-52q0 -20 -16 -20 l-86 2q-86 4 -172 4q-66 0 -116 -2t-75.5 -3t-33.5 -1q-12 0 -13 26zM459 645h426q-14 41 -172 567q-12 37 -21 37q-18 0 -26 -26q-4 -10 -101.5 -280.5t-105.5 -297.5z" />
<glyph unicode="B" horiz-adv-x="1388" d="M61 1391v47q0 18 17 18q6 0 47 -2t108.5 -3t143.5 -1q27 0 132 3t167 3q260 0 360 -55q156 -84 156 -279q0 -123 -66.5 -201.5t-212.5 -132.5v-10q369 -96 369 -401q0 -88 -45 -180.5t-115 -130.5q-125 -72 -446 -72q-41 0 -149.5 3t-149.5 3q-94 0 -188.5 -3t-100.5 -3 q-14 0 -14 16v51q0 14 14 15h88q45 0 61.5 19.5t20.5 68.5q8 98 8 487v242q0 254 -6 358q-4 82 -27.5 102.5t-89.5 20.5h-65q-16 0 -17 17zM516 332q0 -145 40 -209t136 -64q135 0 221 76t86 250q0 242 -196 320q-86 36 -226 36h-8h-53v-127v-282zM516 807q33 -2 94 -2 q145 0 217 59q106 84 107 242q0 141 -90 209q-97 71 -230 71h-4q-45 0 -61 -4q-23 -8 -27 -32q-6 -117 -6 -387v-156z" />
<glyph unicode="C" horiz-adv-x="1536" d="M106 715q0 322 209 549q203 217 533 217q238 0 414 -99q37 -20 41 0l16 54q4 12 33 12q18 0 23 -6t5 -27q0 -57 50 -426q2 -18 -9 -20l-39 -13q-12 -6 -22 21q-51 152 -160 266q-160 152 -356 152q-156 0 -264.5 -88t-153.5 -217t-45 -285q0 -125 43 -273.5t145 -259.5 q151 -159 351 -159h2q160 0 289.5 68.5t199.5 168.5q17 23 25 15l34 -31q7 -7 7 -14q0 -4 -2 -7q-240 -344 -611 -344q-184 0 -308 49.5t-228 143.5q-106 96 -164 250.5t-58 302.5z" />
<glyph unicode="D" horiz-adv-x="1712" d="M53 12v51q0 12 17 13h118q59 0 68 51q14 96 14 659v156q0 283 -12 375q-4 57 -74 57h-110q-16 0 -17 15v55q0 12 18.5 12t123 -3t186.5 -3q51 0 153.5 3t153.5 3q233 0 393 -38t291 -148q229 -188 230 -520q0 -172 -48.5 -298t-152.5 -239q-203 -219 -660 -219 q-37 0 -186 3t-203 3q-80 0 -145.5 -2t-101 -3t-43.5 -1q-12 0 -13 18zM528 741q0 -8 1 -106t2 -218t1 -175q0 -61 37 -115q35 -55 181 -55q123 0 236.5 54t189.5 153q147 190 147 466q0 121 -46 243t-118 204q-82 88 -207 140t-252 52q-98 0 -131 -20q-37 -20 -37 -90 q-4 -86 -4 -385v-148z" />
<glyph unicode="E" horiz-adv-x="1404" d="M86 10v49q0 16 20 17h70q70 0 86.5 15t16.5 73v487v201q0 393 -9 451q-6 41 -25.5 56t-64.5 15h-78q-12 0 -12 15v53q0 14 12 14l95 -4q61 -3 126 -3q32 0 66 1h57q45 0 326 2t326 2q18 0 49 1t33 1q12 0 16 -12q2 -8 24.5 -87t44 -155t25.5 -84q6 -16 -6 -22l-37 -17 q-10 -4 -18 11q-12 18 -103.5 114t-121.5 115q-88 51 -156 53l-311 8l-5 -592q193 0 234 11q63 12 94 73q33 72 33 115q0 16 16 17l54 -5q14 0 12 -16q-4 -33 -4 -221q0 -90 12 -225q0 -12 -16 -15l-45 -8q-10 -2 -17 14q-14 59 -33 103q-31 68 -102 74q-111 12 -238 12 l3 -123q6 -332 6 -348q0 -137 82 -160q66 -16 159 -16q90 0 172 8q98 10 168 69q63 55 191 218q10 14 22 8l33 -21q6 -4 6 -11q0 -4 -2 -9l-98 -307q-10 -31 -45 -31q-2 0 -20.5 1t-62.5 2t-99 1q-39 0 -262.5 1t-419.5 1q-41 0 -98.5 -1t-76.5 -1q-82 -4 -88 -4 q-16 0 -16 16z" />
<glyph unicode="F" horiz-adv-x="1286" d="M61 1384v60q0 12 17 12q2 0 38 -1t113.5 -3t180.5 -2q2 0 312 2t388 2q23 0 49 4l29 4q12 -6 12 -28q2 -10 21.5 -93.5t38 -160t22.5 -86.5q1 -3 1 -6q0 -7 -7 -11l-39 -16q-8 -4 -25 16q-35 63 -147 189q-53 74 -139 94q-97 18 -398 18v-655q178 0 220 10q57 6 108 80 q20 35 37 105q4 16 16 16l41 -4q12 0 13 -12q-4 -37 -5 -234q0 -90 13 -213q2 -16 -13 -20l-45 -9q-14 0 -16 17q-8 55 -31 96q-39 72 -102 84q-78 12 -236 12v-510q0 -41 13.5 -53t52.5 -12h111q16 0 16 -15v-51q0 -16 -16 -16q-4 0 -39 1t-106 3t-159 2q-82 0 -147.5 -2 t-100 -3t-42.5 -1q-12 0 -13 14v55q0 12 13 13h82q37 0 51 8t16 35q6 123 6 651v143q0 53 -2 227.5t-2 176.5q0 57 -82 57h-102q-16 0 -17 10z" />
<glyph unicode="G" horiz-adv-x="1710" d="M106 764q0 143 61.5 281.5t172.5 234.5q225 201 582 201q135 0 247.5 -34t169.5 -77q29 -23 50 4l24 33q14 20 29 20q25 0 24 -28l21 -410q0 -27 -8 -28l-49 -9q-14 -2 -21 17q-61 174 -164 282q-135 143 -340 144q-209 0 -348 -160q-76 -86 -122 -209t-46 -254 q0 -385 184 -569q145 -139 328 -140q178 0 279 54q31 16 40 57t9 131v150q0 53 -16.5 73.5t-57.5 20.5h-86q-16 0 -16 18v47q0 16 12 17q6 0 45 -2t105.5 -3t140.5 -1q76 0 136 1t91 3t35 2q20 0 20 -15v-51q0 -16 -16 -16h-70q-61 0 -61 -76v-270q0 -16 4 -38t4 -28 q0 -20 -33 -33q-264 -135 -581 -135q-166 0 -329 59.5t-261 178.5q-188 207 -189 557z" />
<glyph unicode="H" horiz-adv-x="1757" d="M57 1393v43q0 20 21 20q10 0 46 -1t102.5 -3t154.5 -2q111 0 203 4l92 2q20 0 20 -18v-43q0 -20 -20 -21h-74q-51 0 -66.5 -23.5t-17.5 -88.5q-10 -143 -10 -353v-82q0 -29 24 -28h676q25 0 33 6t8 22v62q0 270 -10 383q-2 53 -13.5 77.5t-41.5 24.5h-94q-16 0 -17 19v47 q0 16 17 16q2 0 97 -3t193 -3q94 0 183 4l88 2q25 0 24 -18v-43q0 -20 -24 -21h-74q-43 0 -54.5 -22.5t-11.5 -81.5q0 -10 -2 -173t-2 -200v-221q0 -41 2 -238.5t2 -259.5q0 -55 18.5 -78.5t63.5 -23.5h82q16 0 17 -15v-47q0 -20 -21 -20q-10 0 -44 1t-95.5 3t-138.5 2 q-113 0 -208 -3t-108 -3q-16 0 -16 18v47q0 16 16 17h111q23 0 35 13t14 28.5t4 50.5q8 197 8 463v57q0 25 -45 25h-667q-29 0 -29 -27v-88q0 -170 8 -453q2 -69 68 -69h2h73q20 0 21 -15v-47q0 -20 -21 -20q-2 0 -88 3t-186 3q-121 0 -213 -4l-90 -2q-20 0 -21 18v47 q0 16 21 17h106q57 0 58 96q0 45 2 219t2 244v262q0 35 -2 184.5t-2 161.5q0 78 -14.5 104.5t-63.5 26.5h-90q-20 0 -21 19z" />
<glyph unicode="I" horiz-adv-x="794" d="M53 1389v53q0 14 13 14q6 0 48 -1t118.5 -3t164.5 -2q86 0 151.5 2t98.5 3t41 1q16 0 17 -18v-47q0 -16 -17 -17h-78q-78 0 -78 -55q0 -10 -2 -247t-2 -249v-159q0 -10 2 -256t2 -258q0 -45 19.5 -59.5t62.5 -14.5h86q16 0 17 -15v-51q0 -16 -21 -16q-6 0 -42 1t-104.5 3 t-152.5 2q-90 0 -163.5 -2t-110.5 -3t-41 -1q-16 0 -16 14v55q0 12 16 13h82q86 0 94 59q8 57 8 582v143q0 365 -6 445q-4 37 -22.5 53t-61.5 16h-106q-16 0 -17 15z" />
<glyph unicode="J" horiz-adv-x="716" d="M-188 -315q0 49 33.5 83.5t84.5 34.5q119 0 172 -139q35 4 66 38t45 85t21.5 187.5t7.5 254t-2 276.5t-2 175v143q0 397 -9 482q-4 37 -21.5 53t-68.5 16h-82q-12 0 -12 10v56q0 16 12 16q4 0 40 -1t107.5 -3t168.5 -2q84 0 150.5 2t100 3t44.5 1q16 0 16 -14v-51 q0 -16 -16 -17h-86q-41 0 -57.5 -12t-18.5 -43q-6 -98 -6 -545v-94q0 -113 -2 -228.5t-4 -190.5t-2 -89q0 -188 -82 -328q-80 -127 -196 -211t-255 -84q-45 0 -96 35t-51 101z" />
<glyph unicode="K" horiz-adv-x="1474" d="M111 8v55q0 12 12 13h74q51 0 55 39q6 49 6 643v119q0 20 -2 231t-2 217q0 49 -61 49h-62q-16 0 -16 15v55q0 12 16 12q6 0 36 -1t89 -3t137 -2q70 0 127.5 2t88 3t38.5 1q16 0 17 -14v-51q0 -16 -17 -17h-65q-33 0 -47.5 -12t-14.5 -47q0 -8 -4 -200.5t-4 -250.5v-90h37 q35 0 69 29q25 20 207.5 244.5t210.5 263.5q18 31 8 48t-40 17h-31q-10 0 -10 15v49q0 16 12 16q8 0 41 -1t87 -3t114 -2q49 0 110.5 3t65.5 3q16 0 16 -14v-51q0 -16 -16 -17h-41q-61 0 -115 -35q-66 -43 -226.5 -222t-236.5 -277q25 -31 275.5 -352.5t285.5 -362.5 q41 -49 123 -49h45q16 0 17 -15v-51q0 -16 -17 -16q-4 0 -36.5 1t-97 3t-148.5 2q-76 0 -138.5 -2t-97.5 -3t-43 -1q-12 0 -12 16v51q0 12 12 13h29q25 0 33 20.5t0 32.5q-16 33 -188.5 278.5t-197.5 270.5q-29 29 -69 29h-37v-152q0 -340 6 -432q4 -45 47 -45h78 q16 0 16 -10v-56q0 -16 -12 -16q-6 0 -35.5 1t-89 3t-137.5 2t-138.5 -2t-90 -3t-33.5 -1q-12 0 -12 14z" />
<glyph unicode="L" horiz-adv-x="1372" d="M78 12v47q0 16 12 17h82q86 0 86 55q0 8 4 304t4 368v115q0 313 -8 382q-4 43 -15.5 58.5t-49.5 15.5h-87q-16 0 -16 19v47q0 16 16 16q4 0 37 -1t97.5 -3t148.5 -2q98 0 174 2t112 3t38 1q20 0 20 -18v-47q0 -16 -20 -17h-111q-43 0 -56.5 -15.5t-13.5 -60.5l-4 -196 q-4 -197 -4 -283v-176q0 -479 8 -567h115q262 0 344 10q76 10 159 131t116 209q12 12 24 8l37 -12q4 -4 4 -21q-6 -8 -47 -177t-55 -230q-160 6 -852 6q-82 0 -146.5 -2t-97.5 -3t-39 -1q-12 0 -14 3t-2 15z" />
<glyph unicode="M" horiz-adv-x="2039" d="M25 12v51q0 12 12 13h94q82 0 102 145q12 92 21.5 353.5t9.5 330.5v350q0 63 -18.5 91t-81.5 28h-90q-16 0 -17 15v55q0 12 17 12q4 0 32.5 -1t95 -3t163.5 -2q57 0 116.5 3t63.5 3q35 0 49 -35q33 -86 211 -518t211 -522q8 16 49 110.5t95 218.5t73 167q225 528 231 548 q8 25 80 25q133 0 223.5 1t129 3t40.5 2q12 0 13 -18v-43q0 -20 -17 -21h-90q-37 0 -47 -19.5t-12 -60.5q-2 -45 -2 -508v-143q0 -72 2 -261t2 -196q2 -110 56 -110h1h111q12 0 12 -15v-47q0 -20 -16 -20q-6 0 -45 1t-109 3t-149 2q-88 0 -158 -2t-105.5 -3t-44.5 -1 q-16 0 -16 18v47q0 16 16 17h127q29 0 42.5 14t17.5 57q6 62 6 480v114q0 569 -4 578h-8q-6 -12 -76 -170t-142.5 -324t-80.5 -186q-16 -37 -131 -299t-119 -270q-23 -45 -45 -45q-20 0 -33 36q-6 8 -141.5 332t-145.5 352q-45 115 -139 338.5t-111 239.5q-10 -37 -10 -569 q0 -395 10 -506q14 -172 99 -172h90q16 0 16 -15v-51q0 -16 -20 -16q-4 0 -32 1t-80 3t-122 2q-78 0 -139.5 -2t-92 -3t-34.5 -1q-12 0 -14 3t-2 15z" />
<glyph unicode="N" horiz-adv-x="1654" d="M29 1389v55q0 12 12 12q4 0 11 -1t22.5 -2t29.5 -1q37 -2 183 -2q41 0 90 4q14 0 33.5 1t23.5 1q31 0 49 -18q16 -16 224 -277.5t239 -304.5q47 -55 381 -471h8v213q0 283 -4 385q-14 289 -22 313q-10 37 -41 57.5t-68 20.5h-65q-12 0 -13 19v47q0 16 17 16q6 0 35.5 -1 t81 -3t112.5 -2q53 0 97 2t67.5 3t32.5 1q20 0 20 -14v-47q0 -20 -12 -21h-57q-59 0 -68 -108q-31 -418 -31 -693v-540q0 -57 -24 -58q-37 0 -70 33q-6 8 -42 49t-96.5 113t-115.5 137q-55 70 -138 169t-131 158.5t-59 74.5q-16 16 -196 239t-185 228h-12v-250 q0 -381 21 -699q4 -80 26.5 -115.5t75.5 -35.5h53q16 0 17 -19v-47q0 -16 -17 -16q-4 0 -90 3t-131 3q-31 0 -119 -3t-94 -3q-12 0 -12 18v51q0 12 12 13h70q41 0 62.5 39t29.5 131q14 258 14 651v260q0 92 -46 154.5t-114 62.5h-65q-12 2 -12 15z" />
<glyph unicode="O" horiz-adv-x="1740" d="M106 711q0 274 189 508q212 262 577 261q281 0 484 -163q278 -226 278 -603q0 -263 -151 -454q-111 -137 -255.5 -214t-359.5 -77q-238 0 -462 135q-121 74 -210.5 237t-89.5 370zM385 780q0 -188 53.5 -335.5t133 -226.5t160.5 -119t153 -40q117 0 208 50.5t140 122 t81 163.5t41 163t9 132q0 160 -50 297t-127 222t-162 133.5t-161 48.5q-2 0 -20 1h-17h-14q-12 -1 -35.5 -3.5t-45 -10.5t-49.5 -20t-56.5 -32.5t-57.5 -49.5q-88 -86 -136 -224.5t-48 -271.5z" />
<glyph unicode="P" horiz-adv-x="1259" d="M66 1389v51q0 16 12 16q6 0 40 -1t103.5 -3t159.5 -2q14 0 100 3t125 3q186 0 290.5 -21.5t193.5 -82.5q72 -53 113.5 -135t41.5 -177q0 -193 -143.5 -303t-401.5 -110q-131 0 -184 8v-90q0 -377 2 -404q8 -65 62 -65h2h114q16 0 17 -15v-47q0 -20 -17 -20q-6 0 -40.5 1 t-105.5 3t-169 2q-80 0 -145.5 -2t-99.5 -3t-38 -1q-16 0 -16 14v51q0 16 12 17h66q53 0 70.5 11t21.5 52q6 62 6 578v237q0 352 -2 375q-6 45 -72 45h-106q-12 0 -12 15zM516 709q49 -16 148 -17q66 0 136 42t109 97q49 74 49 213q0 98 -35.5 170t-90 107t-104.5 50t-93 15 q-90 0 -119 -14v-663z" />
<glyph unicode="Q" horiz-adv-x="1740" d="M106 735q0 324 234 545q113 100 259 152q136 49 245 49h16h19q351 0 559 -221q200 -212 200 -512q0 -161 -60 -304t-157 -235q-168 -164 -360 -221v-8q248 -100 590 -177q333 -73 523 -73h5q76 0 139 53q12 12 21 4l24 -25q3 -3 3 -7q0 -6 -7 -13q-39 -57 -131 -133 t-172 -76q-180 0 -504 94q-365 109 -807 332q-6 4 -59 19.5t-107.5 36t-132 70.5t-143.5 120q-197 197 -197 530zM385 778q0 -190 61.5 -344.5t139.5 -236.5q74 -78 155 -113t136 -35q137 0 238.5 73t150.5 181.5t71.5 204.5t22.5 174q0 174 -50 316.5t-126 228.5 q-145 164 -336 164q-162 0 -291 -123q-172 -162 -172 -490z" />
<glyph unicode="R" horiz-adv-x="1464" d="M102 12v47q0 16 13 17h69q78 0 78 67q4 205 4 590v539q0 102 -65 102h-80q-14 0 -15 12v56q0 14 15 14l31 -2q29 0 95 -2t154 -2q63 0 201.5 3t163.5 3q229 0 373 -129q111 -98 110 -229q0 -340 -381 -402v-8q70 -25 123 -94q12 -16 168 -250q12 -23 83 -119t91 -114 q43 -39 146 -39q16 0 16 -15v-43q0 -20 -16 -20q-4 0 -28 1t-70 3t-103 2q-45 0 -180 -6q-33 25 -90 117q-12 18 -136 237q-57 102 -110 176q-45 63 -85 95t-99 32q-21 0 -66 -4v-110q0 -322 8 -383q12 -78 53 -78h103q16 0 16 -15v-49q0 -18 -22 -18q-6 0 -33 1t-90.5 3 t-157.5 2q-88 0 -150.5 -2t-89 -3t-30.5 -1q-16 0 -17 18zM516 721q57 -8 78 -8q90 0 161.5 27.5t112.5 68.5t67 92t35 91t9 73q0 147 -90 229q-98 88 -271 88q-53 0 -73 -12q-25 -14 -25 -59z" />
<glyph unicode="S" horiz-adv-x="1130" d="M111 63q2 12 18 190.5t18 190.5q3 17 13 17l45 -4q12 0 12 -17q8 -123 78 -233q45 -72 117.5 -110t152.5 -38q98 0 182 61.5t84 178.5q0 135 -65.5 200.5t-237.5 131.5q-188 70 -299 172q-102 96 -102 293q0 174 143 286q115 98 291 99q135 0 258 -49q27 -10 43 6l27 26 q12 12 28.5 12.5t16.5 -32.5q0 -18 16.5 -175t16.5 -165q0 -10 -13 -14l-32 -11q-14 -4 -21 13q-47 133 -127 217q-80 86 -213 86q-111 0 -170 -67.5t-59 -139.5q0 -123 57 -184q74 -74 250 -127q203 -63 295 -160q102 -109 102 -293q0 -193 -118.5 -324t-315.5 -131 q-217 0 -348 99q-37 25 -49 24q-10 0 -33 -37q-14 -25 -37 -24q-25 0 -24 32z" />
<glyph unicode="T" horiz-adv-x="1478" d="M-16 1122q8 29 31.5 121t43 168t23.5 88q6 37 24 37q12 0 33 -20q49 -49 140 -54q332 -12 397 -12h110q123 0 406 12q29 2 77 19.5t70 34.5q27 20 37 20q14 0 21 -33l61 -393q0 -10 -8 -14l-41 -15q-8 -2 -18 17q-88 176 -162 229q-66 37 -316 37h-57v-1092 q0 -113 15.5 -154.5t54.5 -41.5h118q12 0 13 -19v-43q0 -20 -21 -20q-2 0 -34.5 1t-103.5 3t-169 2q-92 0 -166 -2t-112.5 -3t-44.5 -1q-16 0 -17 18v47q0 16 14 17h117q63 0 68 55q6 53 6 721v512h-57q-213 0 -299 -29q-68 -31 -183 -233q-12 -18 -22 -15l-41 15 q-10 6 -8 20z" />
<glyph unicode="U" horiz-adv-x="1525" d="M23 1393v47q0 16 20 16q4 0 43 -1t112.5 -3t159.5 -2q76 0 143.5 2t106.5 3t45 1q16 0 17 -14v-51q0 -16 -17 -17h-86q-45 0 -71.5 -23.5t-28.5 -56.5q-6 -74 -6 -266v-254q0 -215 6 -313q12 -174 72 -254q94 -127 278 -127q74 0 150.5 26.5t124.5 71.5q119 119 118 346 v369q0 219 -22 391q-4 41 -27.5 65.5t-56.5 24.5h-74q-16 0 -16 15v51q0 16 16 16q6 0 41 -1t92.5 -3t116.5 -2q55 0 103.5 2t75 3t30.5 1q20 0 20 -16v-47q0 -18 -12 -19h-74q-72 0 -86 -80q-4 -25 -4 -338q0 -344 -12 -467q-18 -256 -172 -393q-141 -127 -373 -127 q-178 0 -295 49q-178 74 -241 275q-37 116 -37 493v486q0 53 -15.5 77.5t-54.5 24.5h-94q-16 0 -16 19z" />
<glyph unicode="V" horiz-adv-x="1474" d="M33 1393v47q0 16 12 16q4 0 37 -1t102.5 -3t163.5 -2q86 0 156.5 2t107.5 3t39 1q20 0 21 -16v-45q0 -20 -17 -21h-98q-86 0 -86 -51q0 -41 6 -70q20 -111 133 -434q104 -283 172 -512h4v4q129 301 201 516q6 16 52 139.5t77 218.5t31 132q0 23 -19.5 40t-58.5 17h-55 q-15 1 -15 19v47q0 16 17 16q4 0 37.5 -1t90 -3t113.5 -2q76 0 132.5 2t82 3t27.5 1q16 0 17 -14v-51q0 -16 -17 -17h-49q-90 0 -150 -94q-31 -49 -74.5 -148.5t-104 -248t-68.5 -166.5q-23 -47 -160 -379t-148 -352q-12 -27 -40 -27q-25 0 -46 47q-76 190 -311 834 q-27 72 -90 255t-76 214q-27 65 -86 65h-2h-49q-12 0 -12 19z" />
<glyph unicode="W" horiz-adv-x="2162" d="M-14 1389v53q0 14 16 14q2 0 30.5 -1t89 -3t142.5 -2q66 0 124 2t92 3t38 1q16 0 17 -14v-51q0 -16 -19 -17h-39q-31 0 -45 -19.5t-4 -51.5l301 -947l4 -2q43 113 167 469.5t126 405.5q0 61 -37 108q-25 37 -69 37h-43q-14 0 -15 15v51q0 16 17 16q2 0 32.5 -1t93 -3 t140.5 -2q76 0 138.5 2t94 3t35.5 1q14 0 14 -18v-47q0 -16 -14 -17h-72q-29 0 -41 -25.5t-4 -54.5l295 -946h8q295 864 295 969q0 25 -17 41t-52 16h-56q-14 0 -14 17v49q0 16 17 16q6 0 34.5 -1t77.5 -3t105 -2q51 0 95 2t68.5 3t28.5 1q12 0 12 -10v-55q0 -16 -14 -17 h-43q-61 0 -90 -67q-10 -23 -234.5 -634.5t-244.5 -660.5q-20 -53 -54 -53q-37 0 -51 45l-370 1077h-9q-37 -115 -389 -1083q-16 -39 -53 -39q-31 0 -41 33l-459 1308q-27 74 -86 74h-57q-12 0 -12 15z" />
<glyph unicode="X" horiz-adv-x="1437" d="M-35 10v49q0 16 17 17h57q68 0 139 63q51 43 119 130t167 224.5t152 206.5q-31 45 -133 208t-185 291t-103 147q-28 28 -91 28h-4h-77q-12 0 -13 15v51q0 16 13 16q4 0 41.5 -1t110.5 -3t159 -2q90 0 162.5 2t108.5 3t40 1q16 0 17 -16v-47q0 -18 -21 -19h-57 q-64 0 -64 -43q0 -11 4 -24q8 -25 109.5 -205t130.5 -221q279 401 285 432q2 10 2 18q0 43 -54 43h-47q-14 0 -14 17v49q0 16 12 16q6 0 40 -1t89.5 -3t116.5 -2q51 0 98 2t76 3t35 1q16 0 16 -14v-53q0 -14 -16 -15h-66q-66 0 -110 -31q-35 -27 -171 -202.5t-247 -329.5 q68 -117 232.5 -376t201.5 -306q43 -53 123 -53h66q16 0 16 -15v-49q0 -18 -18 -18q-2 0 -33 1t-100.5 3t-163.5 2q-72 0 -140.5 -2t-108.5 -3t-42 -1q-16 0 -17 18v47q0 16 13 17h53q35 0 49 8t10 31q-6 27 -293 512q-297 -430 -309 -482q-8 -31 5.5 -50t41.5 -19h70 q16 -1 16 -17v-47q0 -18 -16 -18q-4 0 -38 1t-95.5 3t-132.5 2q-53 0 -104.5 -2t-81 -3t-33.5 -1q-14 0 -15 16z" />
<glyph unicode="Y" horiz-adv-x="1433" d="M23 1389v55q0 12 16 12q2 0 39 -1t99.5 -3t131.5 -2q92 0 163 2t103.5 3t36.5 1q16 0 17 -14v-47q0 -20 -17 -21h-53q-58 0 -58 -49q0 -5 1 -10q2 -16 64.5 -140t141 -274.5t99.5 -191.5q334 551 338 591q1 7 1 13q0 61 -71 61h-53q-16 0 -16 17v51q0 14 12 14q6 0 39 -1 t90 -3t121 -2q57 0 101 2t66.5 3t28.5 1q16 0 17 -14v-47q0 -20 -17 -21h-45q-66 0 -110 -47q-25 -29 -209.5 -312.5t-241.5 -383.5v-250q0 -168 6 -236q4 -45 23.5 -57t56.5 -12h68q14 0 14 -15v-47q0 -20 -14 -20q-4 0 -39 1t-101.5 3t-148.5 2q-88 0 -154.5 -2t-97.5 -3 t-33 -1q-14 0 -14 18v47q0 16 14 17h84q68 0 72 51q6 86 6 381v98q-47 88 -216 382t-206 341q-39 45 -102 45h-37q-16 0 -16 15z" />
<glyph unicode="Z" horiz-adv-x="1441" d="M59 18q0 20 13 39q684 950 946 1319h-475q-49 0 -101 -35q-33 -20 -128 -129.5t-128 -158.5q-10 -16 -24 -9l-29 17q-8 0 -8 16l131 365q4 22 23 22h2q12 0 45 -4q82 -10 557 -10q55 0 145 2t125 2q139 8 176 8q23 0 30 -16t-5 -33q-207 -285 -963 -1335h545 q102 0 131 12q45 18 143.5 123.5t143.5 163.5q10 10 24 4l33 -16q5 -5 5 -13q0 -4 -1 -8q-41 -63 -151 -352q-8 -23 -29 -23q-12 0 -49 6q-172 25 -627 25h-469q-31 0 -31 18z" />
<glyph unicode="[" horiz-adv-x="720" d="M172 -332v1837q0 25 21 25h430q12 0 12 -12v-50q-1 -16 -17 -16h-229q-20 0 -20 -22v-1678q0 -29 16 -28h254q16 0 16 -17v-45q0 -16 -16 -16h-442q-25 0 -25 22z" />
<glyph unicode="\" horiz-adv-x="745" d="M12 1430q-6 18 4 24l95 41q12 4 20 -12l602 -1446q6 -20 -4 -25l-94 -41q-10 -4 -19 13z" />
<glyph unicode="]" horiz-adv-x="720" d="M66 -293q0 17 16 17h258q12 0 12 22v1681q0 25 -20 25h-230q-16 0 -16 16v50q0 12 12 12h430q20 0 21 -21v-1839q0 -25 -25 -24h-438q-20 0 -20 16v45z" />
<glyph unicode="^" d="M37 512l434 856h82l434 -856h-156l-319 643h-8l-316 -643h-151z" />
<glyph unicode="_" d="M0 -154h1024v-102h-1024v102z" />
<glyph unicode="`" horiz-adv-x="565" d="M63.5 1283q18.5 60 77.5 60q61 0 105 -65l164 -246q6 -6 0 -12l-29 -25q-6 -6 -12 0l-265 185q-59 43 -40.5 103z" />
<glyph unicode="a" horiz-adv-x="907" d="M74 596q0 98 94 168q152 115 332 115q123 0 188 -58q49 -45 49 -153l4 -324v-98q0 -80 12.5 -112t41.5 -32q49 0 65 33q8 14 21 8l24 -16q8 -5 8 -15q0 -7 -4 -18q-66 -119 -188 -119q-131 0 -172 125h-8q-68 -74 -179 -110q-47 -14 -131 -15q-59 0 -100 47.5t-41 129.5 q0 168 189 251q225 109 249 127v107q-8 90 -32 115q-28 30 -98 30h-5q-70 0 -119 -37q-12 -10 -14 -22t2 -36.5t4 -41.5q0 -119 -123 -119q-29 0 -49 18.5t-20 51.5zM303 213q0 -59 27.5 -92t66.5 -33q43 2 87 35.5t44 62.5v269q-14 -10 -69.5 -40t-80 -48.5t-50 -59.5 t-25.5 -94z" />
<glyph unicode="b" horiz-adv-x="1062" d="M2 1305v20q0 10 21 16q123 43 266 115q43 25 61 25q27 0 21 -33q0 -4 -2 -73.5t-5.5 -173t-3.5 -181.5l-2 -246q109 104 281 105q92 0 171 -47.5t128 -124.5q59 -92 59 -256q0 -176 -134 -326t-316 -150q-156 1 -262 54l-80 -47q-10 -6 -27 -7l-28 9q-8 4 -9 16 q6 43 6 348l-4 748q0 100 -18.5 134t-69.5 50l-24 8q-29 4 -29 17zM358 442q0 -227 29 -299q47 -92 152 -92q125 0 186 105q53 92 53 229q0 176 -68.5 273.5t-191.5 97.5q-92 -1 -160 -62v-252z" />
<glyph unicode="c" horiz-adv-x="856" d="M66 393q0 102 38.5 200.5t112.5 166.5q131 119 299 119q158 0 224.5 -59.5t66.5 -125.5q0 -39 -24.5 -64.5t-65.5 -25.5q-84 0 -123 103q-35 84 -127 84q-68 0 -126 -68t-58 -170q0 -109 14 -177.5t65 -154.5q67 -110 208 -110h3q121 0 222 77q8 8 18 -2l25 -28 q5 -5 5 -11.5t-5 -13.5q-45 -57 -143.5 -107.5t-202.5 -50.5q-221 0 -328 136q-98 125 -98 282z" />
<glyph unicode="d" horiz-adv-x="1083" d="M66 377q0 217 143 371q125 131 303 131q106 0 193 -29l-7 397q-2 55 -25.5 80t-103.5 39q-16 6 -16 16v37q0 10 16 17q272 33 291 37q49 8 53 8q18 0 13 -37q-8 -103 -8 -662v-446q0 -156 20 -180q23 -29 86 -37q35 0 41 -13l4 -24q1 -4 1 -8q0 -11 -13 -17l-275 -77 q-23 -8 -28 20l-29 94q-49 -51 -132 -85t-155 -34q-145 0 -245 101q-127 125 -127 301zM281 492q0 -170 76.5 -286t174.5 -116q111 0 156 74q17 33 17 82v358q0 63 -21 98q-23 41 -71 69t-109 28q-92 0 -142 -62q-82 -98 -81 -245z" />
<glyph unicode="e" horiz-adv-x="888" d="M66 424q0 92 19 157.5t81 145.5q66 84 144.5 118t211.5 34q82 0 146.5 -39t97.5 -94.5t49 -106.5t16 -88q0 -20 -13 -26.5t-44 -6.5h-495v-63q0 -147 85 -239.5t181 -92.5q170 0 248 119q10 18 24 10l31 -19q8 -5 8 -15t-8 -25q-121 -217 -373 -218q-199 0 -295 111 q-66 76 -90 154.5t-24 183.5zM285 592h247q68 0 68 29q0 66 -28.5 124t-98.5 58q-147 0 -188 -211z" />
<glyph unicode="f" horiz-adv-x="645" d="M39 10v47q0 12 20 13h82q53 0 54 69v613h-140q-12 0 -10 22l8 70q0 10 27 10h115v41q0 281 151 438q154 147 344 148q88 0 144.5 -33t56.5 -94q0 -41 -34 -70t-69 -29q-43 0 -65 17q-31 10 -57 53q-35 53 -82 53q-82 0 -127 -65q-12 -18 -21.5 -46t-14.5 -52.5t-7 -68.5 t-3 -68.5t-1 -80v-75.5v-68h243q16 0 17 -18l-11 -74q-2 -10 -26 -10h-223v-179q0 -418 2 -446q6 -57 57 -57h94q20 0 21 -19v-37q0 -20 -13 -20l-30 2q-33 0 -96.5 2t-143.5 2q-53 0 -110.5 -2t-94.5 -3t-41 -1q-16 0 -16 16z" />
<glyph unicode="g" horiz-adv-x="1011" d="M20 -332q0 76 62.5 134.5t150.5 95.5v12q-66 14 -102.5 57t-36.5 94q0 127 176 209v4q-176 102 -176 306q0 115 98.5 207t280.5 92q172 0 279 -117q96 76 174 76q55 0 82 -28q25 -24 25 -60q0 -6 -1 -11q0 -31 -24.5 -56.5t-57.5 -25.5q-35 0 -63 29q-33 25 -49 25 q-33 0 -50 -13q25 -49 25 -135q0 -135 -86 -227q-88 -94 -260 -94q-74 0 -117 8q-88 -39 -88 -103q0 -31 15.5 -47t46 -23t80 -7t116.5 4q35 2 66 2q81 0 139 -12q80 -15 143 -68q102 -78 103 -201q0 -139 -127 -237q-59 -47 -165 -82q-100 -33 -223 -33h-14q-207 0 -319 63 q-102 59 -103 162zM203 -287q0 -43 21.5 -84t51.5 -57q84 -49 240 -49q96 0 188.5 50t90.5 132q0 185 -251 185q-16 0 -32 -1l-184 -12q-47 -14 -86 -60t-39 -104zM299 520q0 -117 51 -162q45 -45 117 -45q74 0 107.5 82t33.5 205q0 102 -45 162q-33 41 -96 41 q-68 0 -111 -51q-57 -74 -57 -232z" />
<glyph unicode="h" horiz-adv-x="1116" d="M27 1300v21q0 10 28 25q61 16 267 118q49 16 57 17q23 0 16 -49q-4 -37 -4 -551v-127h12q41 57 115 91t150 34q111 0 204 -82q45 -39 65.5 -94.5t23 -90t2.5 -116.5v-123v-271q0 -32 65 -32h4h37q20 0 21 -15v-45q0 -16 -17 -16q-2 0 -27.5 1t-72.5 3t-103 2 q-53 0 -103 -2t-79 -3t-35 -1q-16 0 -16 14v49q0 12 14 13h35q51 0 57 41q5 28 5 200v138q0 72 -2.5 110.5t-14.5 88.5t-37 75q-49 49 -114 49q-78 0 -152 -74q-37 -47 -37 -100v-442q0 -49 8.5 -67.5t28.5 -18.5h49q20 0 21 -19v-37q0 -20 -17 -20q-4 0 -35.5 1t-81 3 t-96.5 2q-55 0 -106 -2t-81 -3t-34 -1q-16 0 -16 16v45q0 14 18 15h51q59 0 68 32q10 51 10 254l-4 731q0 84 -20.5 123t-73.5 62l-37 12q-16 6 -16 16z" />
<glyph unicode="i" horiz-adv-x="555" d="M35 14v39q0 16 20 17h90q31 0 33 41q4 123 4 184v289q0 51 -20.5 80.5t-85.5 46.5q-20 4 -21 18v23q0 10 14.5 16t132 49t134.5 49q31 12 49 13q20 0 16 -25q-4 -33 -4 -334v-221q0 -152 4 -176q6 -53 33 -53h82q20 0 21 -15v-41q0 -20 -17 -20q-4 0 -37.5 1t-91 3 t-119.5 2q-72 0 -145 -4l-76 -2q-16 0 -16 20zM127 1204q0 47 39 81t98 34q57 0 89 -33t32 -74q0 -49 -34 -85.5t-99 -36.5q-49 0 -87 31.5t-38 82.5z" />
<glyph unicode="j" horiz-adv-x="528" d="M-178 -446q0 35 26.5 68.5t63.5 33.5q61 0 115 -70q35 -45 61 -45q72 0 80 148q11 148 11 346q0 56 -1 117l-4 403q0 63 -19.5 89t-82.5 50l-21 8q-12 6 -12 17v20q0 10 16 17q240 86 275 110q25 12 53 13q23 0 16 -33q-8 -41 -8 -350v-254q0 -313 -29 -455 q-31 -150 -144.5 -247t-244.5 -97q-63 0 -107 29.5t-44 81.5zM113 1221q0 47 43 88t112 41q53 0 94 -36t41 -93q0 -53 -39.5 -92t-107.5 -39q-57 0 -100 34.5t-43 96.5z" />
<glyph unicode="k" horiz-adv-x="1044" d="M35 1325v29q0 14 28 20q35 8 145.5 47t113.5 39q47 20 61 21q18 0 16 -33q-12 -147 -12 -645v-311q51 0 82 24q39 35 104.5 106.5t83.5 98.5q14 20 15 37q0 27 -39 26h-19q-14 0 -14 17v43q0 16 16 16q2 0 30 -2t75 -3t100 -1q49 0 90 1t62.5 3t25.5 2q14 0 15 -22v-37 q0 -16 -17 -17h-20q-63 0 -127 -34q-57 -31 -266 -226q340 -385 401 -426q44 -28 103 -28h4q16 0 16 -19v-41q0 -16 -21 -16q-4 0 -28.5 1t-72.5 3t-107 2q-53 0 -104.5 -2t-82 -3t-35.5 -1q-16 0 -16 20v35q0 16 16 17h17q27 0 20 28q-4 23 -241 303q-25 25 -66 25v-303 q0 -49 41 -49h45q20 0 21 -19v-41q0 -16 -17 -16q-2 0 -27.5 1t-71.5 3t-97 2q-57 0 -107.5 -2t-77.5 -2l-26 -2q-14 0 -15 20v39q0 16 21 17h53q41 0 41 49q6 61 6 303l-4 739q0 66 -18.5 96.5t-90.5 51.5q-29 12 -28 16z" />
<glyph unicode="l" horiz-adv-x="532" d="M4 1309v24q0 10 16 17q225 68 308 118q37 12 45 13q20 0 20 -37q-8 -221 -8 -649v-295q0 -303 4 -365q2 -23 5 -34t15.5 -21t32.5 -10h78q25 0 25 -19v-37q0 -20 -13 -20q-4 0 -36.5 1t-91 3t-121.5 2q-70 0 -128.5 -2t-91 -3t-34.5 -1q-16 0 -17 20v39q0 16 29 17h78 q18 0 34.5 17t16.5 56v562v79q0 266 -8 373q-6 92 -105 123l-41 12q-12 4 -12 17z" />
<glyph unicode="m" horiz-adv-x="1671" d="M63 12v43q0 14 25 15h62q31 0 36 53v123v301q0 96 -61 131l-43 22q-14 8 -14 19v20q0 11 14 17l227 110q25 12 41 13q23 0 25 -29l12 -119h8q49 63 128 105.5t167 42.5q160 0 242 -152h12q51 68 127 110t160 42q123 0 188 -70q57 -59 72 -96q22 -55 22 -159v-9v-234 q0 -33 -2 -102.5t-2 -77.5q0 -61 54 -61h53q16 0 16 -15v-43q0 -18 -16 -18q-2 0 -25.5 1t-69.5 3t-102 2q-51 0 -98 -2t-73.5 -3t-28.5 -1q-16 0 -17 16v43q0 16 17 17h32q41 0 41 41q8 90 8 180v239q0 143 -45 185q-45 45 -122 45q-41 0 -82 -25.5t-64 -58.5 q-31 -43 -31 -160v-381q0 -65 36 -65h1h54q20 0 20 -15v-45q0 -16 -12 -16q-4 0 -27.5 1t-70 3t-103.5 2q-55 0 -104.5 -2t-75 -3t-27.5 -1q-14 0 -14 16v39q0 20 16 21h45q49 0 49 94v350q0 172 -53 217q-35 29 -110 29q-96 0 -148 -86q-33 -47 -33 -146v-364q0 -94 41 -94 h45q20 0 21 -13v-47q0 -16 -17 -16q-4 0 -28.5 1t-71.5 3t-104 2q-53 0 -100.5 -2t-74 -3t-30.5 -1q-16 0 -17 18z" />
<glyph unicode="n" horiz-adv-x="1124" d="M68 719v16q0 15 20 21l225 106q33 16 41 17q18 0 25 -25l16 -106h13q47 53 102 81q84 49 164 50q121 0 180 -50q63 -47 88 -95t25 -116v-294q0 -37 -1 -109t-1 -88q0 -57 49 -57h57q25 0 25 -15v-47q0 -14 -17 -14q-4 0 -29.5 1l-76.5 3t-115 2q-55 0 -101 -2t-72 -3 t-28 -1q-16 0 -16 24v35q0 16 25 17h41q31 0 36 49q8 72 9 192v236q0 72 -9.5 109.5t-44.5 66.5q-41 37 -123 37q-74 0 -131 -53q-43 -43 -43 -146v-422q0 -69 38 -69h1h37q20 0 21 -19v-37q0 -20 -17 -20q-2 0 -25.5 1t-67.5 3t-99.5 2t-103.5 -2t-73.5 -3t-27.5 -1 q-12 0 -12 20v39q0 16 20 17h41q53 0 53 41v460q0 76 -86 119l-16 8q-16 6 -16 21z" />
<glyph unicode="o" horiz-adv-x="1044" d="M66 440q0 82 43 177.5t129 162.5q120 99 290 99q184 0 310 -121q141 -141 141 -324q0 -170 -127 -311q-131 -147 -344 -148q-209 0 -332 148q-66 76 -88 146.5t-22 170.5zM299 434q0 -184 63 -284q56 -89 162 -89q98 0 151.5 107.5t53.5 271.5q0 158 -67.5 257.5 t-145.5 99.5q-80 0 -129 -56q-88 -100 -88 -307z" />
<glyph unicode="p" horiz-adv-x="1071" d="M31 -502q0 14 12 15h74q39 0 45 53q4 45 4 282v707q0 49 -13.5 74.5t-56.5 48.5l-45 24q-16 10 -16 21v20q0 10 16 17l234 102q39 16 57 17q14 0 18 -27l15 -100h4q43 53 118.5 90t159.5 37q135 0 238 -103q61 -63 86 -129.5t25 -163.5q0 -219 -129 -363.5t-318 -144.5 q-100 0 -180 37l4 -372q2 -84 13.5 -105.5t43.5 -21.5h74q16 0 16 -17v-43q0 -16 -20 -16q-2 0 -29.5 1t-83 3t-125.5 2q-59 0 -111 -2t-81 -3t-33 -1q-16 0 -16 16v45zM379 217q0 -82 53 -115q59 -47 160 -47q82 0 141.5 74t61.5 223q0 102 -22.5 190.5t-79 153 t-138.5 64.5q-113 0 -176 -90v-453z" />
<glyph unicode="q" horiz-adv-x="1036" d="M66 391q0 98 45 202.5t133 184.5q111 100 276 101q102 0 221 -45l156 45q5 3 9 3t7 -3l21 -17q6 -6 0 -33q-8 -43 -16.5 -208.5t-8.5 -227.5v-463q0 -246 9 -360q6 -57 45 -57h53q20 0 20 -11v-49q0 -16 -16 -16q-4 0 -34 1t-82 3t-111 2q-63 0 -116.5 -2t-81.5 -3 t-32 -1q-16 0 -16 28v31q0 16 24 17h66q47 0 53 36q6 43 6 369v143h-8q-104 -86 -258 -86q-141 0 -252.5 100.5t-111.5 315.5zM289 508v-22q0 -112 19 -179q20 -74 77 -145q25 -33 64.5 -54.5t72.5 -21.5q106 0 172 66v473q-12 86 -65.5 134t-114.5 48q-74 -2 -128 -57.5 t-75.5 -120t-21.5 -121.5z" />
<glyph unicode="r" horiz-adv-x="733" d="M43 8v45q0 16 18 17h72q53 0 53 55v401q0 70 -15 103t-62 57l-37 21q-16 6 -17 16v12q0 10 17 19l247 116q25 8 33 9q14 0 19 -25l18 -147h8q113 184 246 184q49 0 78 -30t29 -73t-35 -76.5t-76 -33.5q-37 0 -70 16q-23 16 -57 17q-51 0 -86 -60q-25 -43 -25 -100v-395 q0 -49 13.5 -67.5t44.5 -18.5h90q16 0 16 -15v-47q0 -14 -14 -14q-2 0 -36 1t-93.5 3t-124.5 2q-63 0 -118.5 -2t-86.5 -3t-35 -1q-14 0 -14 14z" />
<glyph unicode="s" horiz-adv-x="757" d="M80 258q-1 3 -1 6q0 7 7 10l39 13q14 4 18 -6l68 -115q33 -55 70.5 -83t105.5 -28q61 0 103 35t42 90q0 59 -43 94t-153 66q-250 74 -250 256q0 141 104 215q98 68 213 68q117 0 199 -45q37 -18 39 -37l27 -140q4 -16 -2 -22l-39 -19q-10 -4 -17 9l-98 110 q-59 63 -129 64q-59 0 -100 -33t-41 -84q0 -59 41 -87t143 -54q139 -37 205 -107q61 -61 61 -164q0 -129 -95 -212t-247 -83q-74 0 -137 18.5t-84 35.5q-14 14 -16 22z" />
<glyph unicode="t" horiz-adv-x="677" d="M72 809q47 16 147 106.5t133 151.5q10 20 33 20q25 0 25 -28l-9 -203h271q15 0 15 -11q0 -2 -1 -5l-20 -86q-2 -12 -21 -13h-248q-6 -129 -6 -274v-184q0 -106 34 -149.5t75 -43.5q70 0 118 25q20 8 25 -4l12 -25q4 -16 -8 -29q-115 -82 -258 -82q-88 0 -151.5 58.5 t-63.5 126.5q0 37 3 156.5t3 158.5v266h-119q-28 0 -28 27t39 41z" />
<glyph unicode="u" horiz-adv-x="1077" d="M27 801v37q0 16 24 16h246q14 0 30.5 4t22.5 4q20 0 21 -24q0 -6 -2 -41t-4.5 -94.5t-2.5 -120.5v-127q0 -9 -1 -53q0 -22 -0.5 -39t0.5 -29q1 -24 4.5 -62.5t12.5 -69t25 -55.5q18 -29 44 -42t39.5 -14t48.5 -1q37 0 77.5 22.5t65.5 55.5q23 33 22 65v482q0 61 -88 69 q-41 4 -41 17v37q0 16 25 16h254q14 0 34.5 4t26.5 4q16 0 17 -20q0 -4 -3 -32t-6.5 -91.5t-3.5 -153.5v-147q0 -197 5 -238q10 -69 44 -69h1q41 0 65 4q23 2 25 -9l6 -32q2 -14 -10 -19l-254 -71q-25 -8 -41 -9q-27 0 -29 25l-12 115h-13q-35 -57 -113.5 -98.5 t-156.5 -41.5q-49 0 -74.5 3.5t-64.5 24t-72 63.5q-51 66 -63.5 125t-12.5 161q0 55 1 126t1 85q0 123 -4 148q-8 68 -71 73q-45 6 -45 17z" />
<glyph unicode="v" horiz-adv-x="929" d="M-35 801v43q0 16 21 16q6 0 28.5 -2t72.5 -3t124 -1q55 0 101 1t71 3t33 2q20 0 20 -16v-39q0 -20 -16 -21h-33q-45 0 -45 -34q0 -29 70 -238q61 -164 102 -266h12q139 326 176 448q6 18 6 33q0 17 -8 31q-14 26 -43 26h-32q-12 0 -13 17v45q0 14 17 14q2 0 58 -3t122 -3 q41 0 77 1t57.5 3t25.5 2q20 0 20 -14v-45q0 -16 -14 -17h-35q-53 0 -78 -22q-35 -35 -172 -324q-14 -31 -100 -224.5t-90 -201.5q-23 -43 -51.5 -43t-53.5 47q-8 14 -85 192.5t-95 225.5q-14 43 -57 150.5t-54 126.5q-25 43 -42 58t-44 15h-38q-14 0 -15 17z" />
<glyph unicode="w" horiz-adv-x="1388" d="M-35 799v45q0 16 17 16q6 0 29.5 -2t70.5 -3t113 -1q57 0 113.5 3t62.5 3q16 0 16 -16v-45q0 -14 -16 -15h-21q-25 0 -25 -22q0 -10 5 -25l147 -479h12l160 401q6 16 6 32q0 30 -22 61q-14 20 -53 20h-23q-14 0 -14 14v45q0 16 18 17q2 0 28.5 -2t76 -3t106.5 -1 q41 0 76 1t55.5 3t24.5 2q20 0 20 -17v-43q0 -16 -16 -16h-33q-16 0 -25.5 -14.5t-3.5 -32.5l152 -442h8l135 370q15 44 15 73q0 16 -4 26q-12 32 -52 32h-28q-12 0 -13 15v45q0 16 17 16q2 0 25.5 -2t63.5 -3t83 -1q53 0 99 3t48 3q16 0 17 -14v-45q0 -16 -15 -17h-30 q-59 0 -78 -34q-8 -16 -80 -188.5t-146.5 -355.5t-87 -210t-43.5 -27q-25 0 -41 43l-204 553h-13l-237 -561q-16 -35 -49 -35q-23 0 -39 43l-281 719q-20 53 -78 53h-34q-14 0 -15 15z" />
<glyph unicode="x" horiz-adv-x="884" d="M-55 12v41q0 16 16 17h41q51 0 88 30q33 25 254 308q-137 225 -246 350q-26 26 -68 26h-3h-41q-16 0 -17 15v45q0 16 17 16q4 0 28.5 -2t72.5 -3t108 -1q41 0 84 1t71.5 3t32.5 2q12 0 12 -16v-41q0 -14 -10 -15h-14q-20 0 -20.5 -20t16.5 -47l106 -176l123 164 q18 25 13 52t-29 27h-25q-12 0 -12 11v47q0 14 14 14q4 0 24.5 -2t59.5 -3t90 -1q37 0 66.5 1t45 3t19.5 2q16 0 17 -14v-45q0 -16 -17 -17h-24q-51 0 -86 -28q-25 -20 -105 -112.5t-127 -158.5q186 -287 260 -370q39 -45 82 -45h31q10 -1 10 -15v-47q0 -14 -14 -14 q-4 0 -24.5 1t-65.5 3t-109 2q-72 0 -137 -4l-68 -2q-16 0 -16 16v43q0 16 16 17h17q18 0 24 20.5t-8 40.5l-127 207q-39 -45 -92 -122t-61 -97q-7 -16 -7 -26q0 -23 33 -23h31q10 0 10 -19v-41q0 -16 -16 -16q-4 0 -26.5 1t-59.5 3t-78 2q-63 0 -112.5 -3t-51.5 -3 q-16 0 -16 18z" />
<glyph unicode="y" horiz-adv-x="897" d="M-31 801v45q0 14 17 14q4 0 27.5 -2t72.5 -3t117 -1q72 0 137 2l68 4q16 0 16 -16v-45q0 -14 -14 -15h-31q-39 0 -31 -43q4 -33 69.5 -252t80.5 -251h8q31 63 106.5 250.5t83.5 218.5q4 18 4 31q0 46 -45 46h-2h-32q-16 0 -17 15v45q0 16 17 16q2 0 56 -3t120 -3 q41 0 88 3t49 3q14 0 14 -16v-43q0 -16 -12 -17h-25q-47 0 -73 -34q-47 -61 -328 -693q-207 -444 -225 -479q-2 -2 -10.5 -16.5t-11.5 -18.5t-12 -17t-14.5 -18.5t-15.5 -16.5t-18 -16t-20.5 -12.5t-24 -10.5t-27 -6t-31.5 -3q-55 0 -89 30.5t-34 80.5q0 43 29 72.5t70 29.5 t90 -25q33 -16 53 4q18 18 77.5 143.5t78.5 184.5q-8 39 -126 362.5t-138 372.5q-18 45 -37 65.5t-47 20.5h-41q-16 0 -17 17z" />
<glyph unicode="z" horiz-adv-x="909" d="M27 596l123 291q74 -16 110 -21q111 -12 279 -12h299q16 0 22 -10t-2 -23l-512 -751h234q121 0 299 219q10 12 22 6l27 -21q6 -5 6 -12q0 -4 -2 -8l-148 -279q-39 12 -213 21q-94 4 -217 4h-262q-37 0 -8 45l496 743h-181q-92 0 -146 -36.5t-173 -188.5q-10 -12 -21 -6 l-28 16q-6 4 -6 12q0 5 2 11z" />
<glyph unicode="{" horiz-adv-x="720" d="M78 610q0 37 33 37q45 0 77 17q61 31 62 147q0 45 -37 193q-41 131 -41 202q0 139 94 221t262 99q20 0 55 2t48 2q37 0 37 -29q0 -37 -25 -37q-37 0 -57 -4q-100 -12 -156.5 -71.5t-56.5 -155.5q0 -98 22 -189q23 -98 23 -159q0 -70 -28 -126.5t-66 -78.5 q-12 -10 -36 -26.5t-33 -25t-9 -18.5q0 -12 10 -22t32.5 -24.5t39.5 -31.5q90 -72 90 -200q0 -63 -23 -168q-23 -96 -22 -191q0 -111 59.5 -174t149.5 -80q25 -8 65 -8q20 0 21 -37q0 -29 -29 -28q-10 0 -33.5 2t-36.5 2q-182 10 -289.5 89t-107.5 236q0 98 37 209 q41 139 41 197q0 125 -66 168q-20 16 -73 24q-33 6 -33 37z" />
<glyph unicode="|" horiz-adv-x="716" d="M295 -512v2052q0 16 12 16h105q14 0 14 -20v-2048q0 -20 -12 -20h-107q-12 0 -12 20z" />
<glyph unicode="}" horiz-adv-x="720" d="M53 -321.5q0 32.5 25 32.5q41 0 61 4q96 12 152.5 77t56.5 167q0 74 -20 217q-25 115 -25 156q0 141 94 205q12 8 29.5 21t26 19.5t15.5 15.5t7 17q0 10 -11 19.5t-32.5 24t-38.5 30.5q-90 72 -90 201q0 45 25 159q20 143 20 175q0 98 -60.5 161.5t-148.5 79.5 q-10 0 -31.5 2t-29.5 2q-25 0 -25 33t37 33q8 0 30.5 -2t35.5 -2q176 -10 284.5 -91t108.5 -227q0 -78 -41 -200q-37 -129 -37 -172q0 -125 66 -168q20 -16 69 -25q37 0 37 -33q0 -41 -37 -41t-74 -12q-61 -29 -61 -151q0 -33 37 -189q41 -139 41 -231q0 -145 -96.5 -232.5 t-264.5 -103.5q-16 0 -47.5 -2t-50.5 -2q-37 0 -37 32.5z" />
<glyph unicode="~" d="M111 328q0 152 62.5 235.5t150.5 83.5q78 0 155 -45l90 -57q4 -2 24.5 -16.5t32 -20.5t32 -13.5t38.5 -7.5q96 0 90 168h127q0 -156 -59 -237.5t-145 -81.5q-80 0 -177 61l-77 54q-76 45 -127 45q-39 0 -65.5 -41t-24.5 -127h-127z" />
<glyph unicode="&#xa1;" horiz-adv-x="528" d="M129 743q0 49 34 92.5t105 43.5q57 0 94 -39t37 -101q0 -53 -37 -88t-98 -35q-51 0 -93 34t-42 93zM135 -401q0 25 49 361.5t54 445.5q0 16 12 16h37q16 0 16 -21q4 -109 47 -438.5t43 -363.5q0 -68 -32.5 -112t-94.5 -44q-137 0 -131 156z" />
<glyph unicode="&#xa2;" d="M90 647q0 172 117 312.5t321 162.5l9 201q0 16 12 16h57q12 0 12 -20l-8 -193q158 -2 228.5 -60t70.5 -116q-6 -86 -94 -86q-84 0 -119 82q-33 82 -90 94l-33 -696q49 -4 58 -4q139 0 241 90q14 6 21 0l25 -24q12 -12 0 -29q-51 -59 -143.5 -106.5t-205.5 -49.5l-12 -229 q0 -20 -12 -21h-58q-14 1 -8 21l8 233q-184 12 -290 135q-106 125 -107 287zM311 741q0 -184 99 -311q31 -43 86 -61l28 680q-86 -4 -149.5 -86t-63.5 -222z" />
<glyph unicode="&#xa3;" d="M-78 37q0 55 61.5 124.5t118.5 88.5q41 41 107 225h-148q-16 0 -16 12v54q0 12 12 12h176q12 27 76 230.5t86 263.5q55 150 179 251t274 101q113 0 175 -51.5t62 -108.5q0 -39 -25.5 -62.5t-64.5 -23.5q-92 0 -127 74q-2 2 -11 36.5t-24.5 48t-46.5 13.5 q-49 0 -84.5 -68.5t-80.5 -248.5q-29 -115 -98.5 -253.5t-112.5 -201.5h290q20 0 21 -12v-54q0 -12 -21 -12h-335q-70 -115 -170 -207l6 -6q59 6 103 7t83 -7t64.5 -17t58.5 -32t54.5 -43t62.5 -59q74 -66 131 -66q25 0 45 18.5t28 38.5q16 41 -28 41q-47 0 -77 21.5 t-30 52.5q0 39 30 73t77 34q59 0 103 -42t44 -102q0 -78 -67.5 -147.5t-210.5 -69.5q-115 0 -186.5 32t-149.5 116q-90 96 -172 90q-12 -45 -58 -115q-61 -90 -135 -90q-49 0 -49 41z" />
<glyph unicode="&#xa4;" d="M35 283q-12 12 0 24l180 172q-27 25 -49.5 84.5t-22.5 112.5q0 152 86 235l-190 170q-14 14 0 29l55 57q10 12 23 0l190 -176q90 68 223 68q127 0 199 -62l182 170q12 8 21 0l55 -51q14 -14 2 -26l-176 -170q35 -37 57.5 -98.5t22.5 -114.5q0 -152 -76 -240l176 -168 q2 -4 2 -10t-2 -10l-57 -62q-13 -12 -25 0l-182 168q-84 -59 -223 -59q-135 0 -213 71l-176 -180q-10 -14 -25 0zM311 692q0 -109 58.5 -174t148.5 -65q96 0 151.5 64.5t55.5 174.5q0 106 -57.5 171t-149.5 65q-96 0 -151.5 -64.5t-55.5 -171.5z" />
<glyph unicode="&#xa5;" d="M-66 1307v51q0 16 17 16q4 0 35.5 -1t83 -3t102.5 -2q70 0 130 2t94 3t38 1q12 0 12 -14v-47q0 -20 -14 -21h-35q-43 0 -59 -17.5t-8 -46t103 -241.5t128 -274h4q12 31 73.5 152.5t115 231t57.5 126.5q6 31 -12.5 50t-57.5 19h-49q-16 0 -16 19v47q0 16 16 16q4 0 34 -1 t77 -3t94 -2q53 0 94 2t62.5 3t27.5 1q16 0 17 -14v-47q0 -20 -17 -21h-41q-43 0 -84 -45q-29 -29 -342 -588h279q16 0 16 -12v-53q0 -12 -16 -12h-291v-136h291q16 0 16 -12v-53q0 -12 -16 -12h-291l2 -228q0 -66 72 -65h74q16 0 16 -13v-53q0 -16 -16 -16q-6 0 -35 1 t-82 3t-121 2q-80 0 -139.5 -2t-88 -3t-34.5 -1q-12 0 -12 20v49q0 12 16 13h86q57 0 57 51v242h-295q-12 0 -12 12v53q0 12 12 12h295v136h-295q-12 0 -12 16v49q0 12 16 12h275q-240 477 -307 584q-33 49 -86 49h-37q-16 0 -17 15z" />
<glyph unicode="&#xa6;" horiz-adv-x="716" d="M295 -338v676q0 20 14 20h105q12 0 12 -20v-676q0 -20 -14 -20h-105q-12 0 -12 20zM295 686v676q0 20 12 20h103q16 0 16 -20v-676q0 -20 -12 -20h-103q-16 0 -16 20z" />
<glyph unicode="&#xa7;" horiz-adv-x="1105" d="M143 709q0 98 51.5 170.5t120.5 107.5q-53 63 -53 195q0 98 82 188q100 111 307 111q100 0 167 -40t67 -95q0 -86 -99 -86q-43 0 -65.5 18t-52.5 68q-41 61 -95 61q-63 0 -113 -49t-50 -125q0 -25 4 -46.5t14 -41t19.5 -34.5t31 -34.5t34.5 -31t45 -33t48.5 -31.5 t57.5 -34.5t61 -37.5q123 -80 181.5 -163t56.5 -189q4 -203 -189 -291q78 -88 78 -211q0 -139 -98 -237q-94 -94 -279 -94q-113 0 -185.5 33.5t-72.5 92.5q0 43 24.5 67t65.5 24q74 0 119 -70q45 -66 106 -66q59 0 107.5 41t48.5 125q0 66 -35 123.5t-73.5 89t-120.5 88 t-127 93.5q-188 152 -189 344zM279 782q0 -104 118 -200q70 -55 151 -114.5t124 -91.5t57 -52q37 12 65.5 54t28.5 85q0 117 -139 217q-47 33 -108.5 74t-89 59t-59.5 42t-49.5 40t-29.5 35q-70 -45 -69 -148z" />
<glyph unicode="&#xa8;" horiz-adv-x="712" d="M59 1202q0 37 29 74t92 37q45 0 77 -32t32 -87q0 -49 -31 -76.5t-78 -27.5q-45 0 -83 25.5t-38 86.5zM424 1202q0 37 28.5 74t92.5 37q45 0 76.5 -32t31.5 -87q0 -49 -31.5 -76.5t-76.5 -27.5t-83 25.5t-38 86.5z" />
<glyph unicode="&#xa9;" horiz-adv-x="1671" d="M86 722.5q0 321.5 217.5 540t532.5 218.5q328 0 538.5 -210t210.5 -544q0 -324 -208 -541t-541 -217q-336 0 -543 216t-207 537.5zM205 727q0 -174 60.5 -309t157.5 -210t202.5 -112t210.5 -37q166 0 291.5 62.5t196.5 163t104.5 212t33.5 226.5q0 170 -61.5 305 t-157.5 210t-201.5 114t-205.5 39q-268 0 -449.5 -185.5t-181.5 -478.5zM385 733q0 190 135 320q127 127 328 127q72 0 134 -20.5t87 -41.5q20 -16 29 0l6 29q2 12 26 12q20 0 25 -10q2 -14 9 -71.5t14.5 -118t9.5 -70.5q0 -14 -8 -17l-29 -6q-14 -4 -16 6q-41 100 -99 152 q-76 82 -192.5 82t-189 -103.5t-68.5 -240.5q10 -190 94 -275q102 -102 213 -102q172 0 299 135q10 10 18 2l23 -18q4 -4 -4 -21q-147 -209 -381 -209q-209 0 -324 115q-139 139 -139 344z" />
<glyph unicode="&#xaa;" horiz-adv-x="716" d="M57 989q0 72 103 127q98 49 209 49q90 0 155 -41q57 -41 58 -143q0 -10 -2 -87t-2 -83v-49q0 -143 40 -144q6 0 12.5 2.5t12.5 8.5l9 9t8.5 11t7.5 10q0 14 12 9l29 -13q10 0 4 -16q-43 -98 -156 -98q-90 0 -135 82v4q-78 -70 -148 -82q-25 -4 -86 -4q-45 0 -81.5 40 t-36.5 87q0 106 159 176q129 55 185 74l4 75q0 45 -33 78q-33 25 -82 25q-55 0 -82 -33q-8 -8 -9 -19.5t2 -27t3 -23.5q0 -27 -24.5 -46t-69.5 -19q-66 0 -66 61zM242 700q0 -74 65 -73q27 0 61 19t50 42l-4 168q-172 -61 -172 -156z" />
<glyph unicode="&#xab;" horiz-adv-x="868" d="M57 434q0 12 13 25l303 307q8 8 12 8t8 -4l41 -33q4 -4 4 -8q0 -2 -2 -6t-2 -6l-155 -283l155 -282q4 -4 4 -12.5t-4 -8.5l-41 -33l-8 -4l-16 8l-299 312q-12 12 -13 20zM406 434q0 12 12 25l303 307q8 8 12 8t8 -4l41 -33q4 -4 4 -8q0 -2 -2 -6t-2 -6l-155 -283 l155 -282q4 -4 4 -12.5t-4 -8.5l-41 -33l-8 -4q-4 0 -12 8l-303 312q-12 12 -12 20z" />
<glyph unicode="&#xac;" d="M111 596v135h802v-479h-147v344h-655z" />
<glyph unicode="&#xad;" horiz-adv-x="823" d="M102 494v106q0 16 17 16h573q25 0 25 -20v-96q0 -18 -25 -19h-573q-16 0 -17 13z" />
<glyph unicode="&#xae;" horiz-adv-x="1155" d="M92 1009.5q0 200.5 139.5 336t348.5 135.5q215 0 349 -131t134 -338q0 -203 -132 -337t-351 -134q-223 0 -355.5 134t-132.5 334.5zM186 1012q0 -109 37 -190t97.5 -125t126 -65.5t133.5 -21.5q106 0 186 37t123 98.5t63.5 128t20.5 136.5q-2 199 -124 300t-269 101 q-172 0 -283 -109.5t-111 -289.5zM338 754v20q0 8 6 8h14q14 0 22.5 2t13.5 11.5t5 27.5v275v123q0 37 -41 36h-12q-8 0 -8 5v24q0 8 8 8l47 -2q45 -2 56 -2q6 0 68.5 2t70.5 2q127 0 168 -45q37 -43 37 -90q0 -68 -43 -105.5t-97 -49.5v-5q31 -18 41 -30q18 -23 61.5 -87.5 t65.5 -86.5q12 -12 43 -13q10 0 10 -10v-18q0 -8 -8 -9l-26 3q-25 2 -45 2q-16 0 -41 -2.5t-31 -2.5q-16 12 -50 62.5t-44 73.5q-29 57 -47 80q-18 27 -43 26h-25v-41q0 -123 2 -135q4 -29 23 -29h32q8 0 9 -8v-20q0 -8 -13 -9l-45 3q-45 2 -69 2q-23 0 -64 -2l-41 -3 q-10 0 -10 9zM514 1024h33q70 -2 98.5 40t28.5 79q0 49 -31 76q-45 39 -92 38q-12 0 -37 -4v-229z" />
<glyph unicode="&#xaf;" horiz-adv-x="610" d="M61 1098v104q0 12 17 12h450q20 0 21 -12v-104q0 -13 -25 -13h-446q-16 0 -17 13z" />
<glyph unicode="&#xb0;" horiz-adv-x="638" d="M82 1260q0 94 65.5 157.5t171.5 63.5q111 0 174.5 -59.5t63.5 -153.5q0 -96 -66.5 -161t-175 -65t-171 60.5t-62.5 157.5zM188 1264q0 -59 40 -101.5t91 -42.5q53 0 92.5 41t39.5 103q0 57 -40 96t-91.5 39t-91.5 -39t-40 -96z" />
<glyph unicode="&#xb1;" d="M111 16v136h802v-136h-802zM111 596v135h327v273h148v-273h327v-135h-327v-289h-148v289h-327z" />
<glyph unicode="&#xb2;" horiz-adv-x="712" d="M7 830.5q-3 11.5 9 23.5q178 158 271 264q135 156 135 279q0 66 -37 106.5t-94 40.5q-92 0 -168 -86q-12 -18 -25 -12l-24 16q-10 4 -4 17q25 59 100.5 121.5t198.5 62.5q104 0 176.5 -58.5t72.5 -166.5q0 -147 -172 -303q-76 -70 -217 -181v-4h209q72 0 106 17.5 t62 56.5q8 14 33 8q25 -10 16 -28l-82 -197q-4 -12 -28 -12q-20 0 -29 12q-10 16 -110 16h-271q-27 0 -68.5 -2t-46.5 -2q-10 0 -13 11.5z" />
<glyph unicode="&#xb3;" horiz-adv-x="712" d="M49 928q0 31 19.5 52t46.5 21q18 0 32.5 -9t19.5 -15t13 -27l8 -18q16 -61 99 -62q63 0 109 48.5t46 109.5q0 168 -155 201q-33 6 -33 28q0 29 25 29q59 6 97 51t38 101q0 51 -32 87t-79 36q-100 0 -151 -103q-14 -20 -25 -16l-29 8q-8 4 -8 20q20 72 89 132.5t190 60.5 q111 0 166 -52t55 -112q0 -74 -46 -128t-118 -81v-8q86 -12 147.5 -70.5t61.5 -136.5q0 -121 -100.5 -195.5t-268.5 -74.5q-117 0 -167 37t-50 86z" />
<glyph unicode="&#xb4;" horiz-adv-x="565" d="M156 1016q-8 8 0 16l166 246q47 68 100 65q39 2 63.5 -27.5t19.5 -70.5t-46 -69l-262 -181q-9 -8 -17 0z" />
<glyph unicode="&#xb6;" horiz-adv-x="1175" d="M102 958q0 147 53.5 246t162 152t244.5 73.5t331 20.5h184q33 0 33 -12v-41q0 -12 -20 -17h-119v-1640q0 -16 -17 -16h-61q-8 0 -10 5t-2 27v1620q-78 0 -144 -8v-1616q0 -29 -12 -28h-61q-17 -1 -17 32v723q-545 37 -545 479z" />
<glyph unicode="&#xb7;" horiz-adv-x="548" d="M131 729q0 47 37 93t111 46q57 0 98 -41t41 -106q0 -59 -39 -97t-96 -38q-59 0 -105.5 38t-46.5 105z" />
<glyph unicode="&#xb8;" horiz-adv-x="602" d="M61 -442q0 29 66 28q59 0 109.5 30t50.5 81q0 78 -131 102l159 201h107l-119 -135q68 -14 110 -56t42 -92q0 -90 -106.5 -145t-246.5 -55q-41 0 -41 41z" />
<glyph unicode="&#xb9;" horiz-adv-x="712" d="M78 1479q-4 10 8 16l332 154q29 14 39 14q14 0 14 -21v-57q-2 -59 -3 -146t-1 -157v-319q0 -49 13.5 -61.5t64.5 -12.5h45q12 0 12 -10v-48q0 -12 -12 -12q-2 0 -39 1t-92.5 2t-98.5 1q-41 0 -95 -1t-91 -2t-39 -1q-16 0 -16 12v48q0 10 20 10h58q57 0 69.5 10t12.5 55 q0 4 2 119t2 139v54q0 129 -4 159q-4 45 -33 45q-20 0 -58 -12l-69 -24q-18 -6 -21 0z" />
<glyph unicode="&#xba;" horiz-adv-x="786" d="M55 854q0 143 107 229q100 82 241 82q61 0 128 -22.5t106 -55.5q94 -82 94 -223q0 -143 -99 -233t-253 -90q-143 0 -246 102q-78 78 -78 211zM244 889q0 -137 32 -209q33 -78 115 -78q68 -2 108 61.5t40 161.5q0 131 -41 205t-98.5 74t-94.5 -37q-61 -61 -61 -178z" />
<glyph unicode="&#xbb;" horiz-adv-x="868" d="M82 139q0 4 8 13l156 282l-160 283q0 2 -2 6t-2 6q0 8 8 8l41 33q0 4 8 4q4 0 13 -8l303 -311q12 -12 12 -20.5t-16 -24.5l-299 -308q-8 -8 -12.5 -8t-12.5 8l-37 29zM430 139q0 4 8 13l156 282l-160 283q0 2 -2 6t-2 6q0 8 8 8l41 33q0 4 8 4q4 0 13 -8l303 -311 q12 -12 12 -20.5t-16 -24.5l-299 -308q-8 -8 -12.5 -8t-12.5 8l-37 29z" />
<glyph unicode="&#xbc;" horiz-adv-x="1585" d="M49 1214q-4 10 8 17l332 153q29 14 39 15q14 0 14 -21v-59q-2 -57 -3 -144t-1 -157v-320q0 -49 13.5 -61t64.5 -12h45q12 0 12 -11v-49q0 -12 -12 -12q-4 0 -50 2t-101.5 3t-77.5 1q-25 0 -124 -3t-102 -3q-16 0 -16 12v49q0 10 21 11h57q57 0 69.5 10t12.5 55q0 6 2 121 t2 137v53q0 115 -4 160q-8 45 -33 45q-20 0 -57 -12l-70 -25q-18 -6 -20 0zM360.5 18.5q-0.5 4.5 5 13.5t7.5 15l827 1335q8 16 17 17q2 0 6 -2t6 -2q37 -20 45 -25q20 -14 20 -20q0 -5 -8 -21l-831 -1339q-6 -20 -17 -21q-12 0 -28 8q-29 29 -41 29q-8 8 -8.5 12.5z M817 213q0 18 25 47l456 555q20 25 41 25q33 0 33 -45v-484h111q12 0 12 -16v-90q0 -20 -20 -21h-103v-159q0 -25 -20 -25h-127q-16 0 -17 20v164h-362q-29 0 -29 29zM988 322.5q3 -11.5 20 -11.5h200v254q0 10 -5 15.5t-13 3.5t-19 -15l-178 -225q-8 -10 -5 -21.5z" />
<glyph unicode="&#xbd;" horiz-adv-x="1585" d="M29 1214q-4 10 8 17l332 153q29 14 39 15q14 0 14 -21v-59q-2 -57 -3 -144t-1 -157v-320q0 -49 13 -61t65 -12h45q12 0 12 -11v-49q0 -12 -12 -12q-4 0 -50.5 2t-101.5 3t-78 1q-25 0 -124 -3t-101 -3q-16 0 -16 12v49q0 10 20 11h57q57 0 69.5 10t12.5 55q0 6 2 121 t2 137v53q0 115 -4 160q-8 45 -32 45q-20 0 -58 -12l-69 -25q-18 -6 -21 0zM311 18q0 4 8 29l828 1335q8 16 16 17q2 0 6.5 -2t6.5 -2t21.5 -10.5t23.5 -14.5q20 -12 20 -20q0 -13 -8 -21l-827 -1339q-14 -20 -21 -21q-12 0 -25 8l-41 29q-8 4 -8 12zM872 8q0 16 17 25 q6 6 46 42t68.5 61.5t72.5 70.5t79 88q135 150 135 278q0 66 -36.5 107t-94.5 41q-94 0 -166 -86q-14 -18 -26 -12l-25 16q-8 8 -4 16q25 59 100.5 122t198.5 63q104 0 177 -58.5t73 -167.5q0 -147 -172 -303q-76 -70 -217 -180v-4h209q72 0 105.5 17.5t62.5 56.5q8 14 32 8 q16 -6 19.5 -11t-2.5 -18l-82 -196q-4 -12 -29 -13q-20 0 -29 13q-10 16 -110 16h-270q-27 0 -70 -2t-45 -2q-16 0 -17 12z" />
<glyph unicode="&#xbe;" horiz-adv-x="1585" d="M49 664q0 31 19.5 52t46.5 21q18 0 32.5 -9t19.5 -15t13 -25l8 -20q16 -61 99 -62q63 0 109 48t46 110q0 168 -155 201q-33 6 -33 28q0 29 25 29q59 6 97 51t38 101q0 51 -32 86.5t-79 35.5q-100 0 -153 -106q-10 -23 -23 -16l-31 12q-10 4 -6 20q20 72 89 132.5 t190 60.5q111 0 166 -52.5t55 -111.5q0 -74 -46 -128t-118 -81v-8q86 -12 147.5 -70.5t61.5 -136.5q0 -121 -100.5 -195.5t-268.5 -74.5q-117 0 -167 36.5t-50 86.5zM360 23q0 4 5.5 13t7.5 15l827 1331q8 16 17 17q12 0 24 -8q41 -20 49 -29q4 -4 4 -8.5t-8 -20.5 l-827 -1339q-12 -25 -21 -25q-2 0 -6 2t-6 2q-37 25 -45 29q-20 14 -21 21zM817 213q0 18 25 47l456 555q20 25 41 25q33 0 33 -45v-484h111q12 0 12 -16v-90q0 -20 -20 -21h-103v-159q0 -25 -20 -25h-127q-16 0 -17 20v164h-362q-29 0 -29 29zM988 322.5q3 -11.5 20 -11.5 h200v254q0 10 -5 15.5t-13 3.5t-19 -15l-178 -225q-8 -10 -5 -21.5z" />
<glyph unicode="&#xbf;" horiz-adv-x="753" d="M70 -16q0 74 26.5 127t63.5 79.5t91 41t96 17.5t91 5h21q16 0 16 16v185q0 16 17 16h45q12 0 12 -16v-398q0 -31 -29 -24q-37 8 -127 8q-74 0 -139.5 -35t-65.5 -108q0 -102 115 -168q100 -66 221 -66q66 0 109 -32.5t43 -86.5q0 -37 -30 -69.5t-85 -32.5 q-143 0 -317 178t-174 363zM365 756q0 49 35.5 86t99.5 37q53 0 92 -36t39 -87t-34.5 -85t-100.5 -34q-61 0 -96 31.5t-35 87.5z" />
<glyph unicode="&#xc0;" horiz-adv-x="1523" d="M-33 20v39q0 16 13 17h61q78 0 131 92q16 29 100 241t129 336q57 164 201 537q12 61 4 70q-12 12 -12 24q0 16 20 21q47 12 115 47t88.5 55.5t30.5 20.5q12 0 24 -37q16 -59 115.5 -353t118.5 -364q39 -129 113.5 -343t95.5 -253q49 -94 131 -94h65q16 0 17 -15v-43 q0 -25 -21 -24q-10 0 -39.5 1t-97 3t-166.5 2q-102 0 -191 -3t-95 -3q-20 0 -21 24v41q0 16 16 17h54q43 0 57 17.5t4 58.5q-23 104 -123 411h-475q-115 -330 -127 -395q-4 -16 -4 -43q0 -20 21.5 -34.5t52.5 -14.5h86q20 0 20 -10v-52q0 -20 -16 -20l-86 2q-86 4 -172 4 q-66 0 -116 -2t-75.5 -3t-33.5 -1q-12 0 -13 26zM365 1831q0 33 27.5 63.5t66.5 30.5q49 0 86 -37l274 -266q10 -10 4 -16l-22 -31q-6 -8 -19 -2l-348 160q-29 14 -49 42.5t-20 55.5zM459 645h426q-14 41 -172 567q-12 37 -21 37q-18 0 -26 -26q-4 -10 -101.5 -280.5 t-105.5 -297.5z" />
<glyph unicode="&#xc1;" horiz-adv-x="1523" d="M-33 20v39q0 16 13 17h61q78 0 131 92q16 29 100 241t129 336q57 164 201 537q12 61 4 70q-12 12 -12 24q0 16 20 21q47 12 115 47t88.5 55.5t30.5 20.5q12 0 24 -37q16 -59 115.5 -353t118.5 -364q39 -129 113.5 -343t95.5 -253q49 -94 131 -94h65q16 0 17 -15v-43 q0 -25 -21 -24q-10 0 -39.5 1t-97 3t-166.5 2q-102 0 -191 -3t-95 -3q-20 0 -21 24v41q0 16 16 17h54q43 0 57 17.5t4 58.5q-23 104 -123 411h-475q-115 -330 -127 -395q-4 -16 -4 -43q0 -20 21.5 -34.5t52.5 -14.5h86q20 0 20 -10v-52q0 -20 -16 -20l-86 2q-86 4 -172 4 q-66 0 -116 -2t-75.5 -3t-33.5 -1q-12 0 -13 26zM459 645h426q-14 41 -172 567q-12 37 -21 37q-18 0 -26 -26q-4 -10 -101.5 -280.5t-105.5 -297.5zM657 1606q-8 8 5 16l280 268q35 35 86 35q37 0 62.5 -28.5t25.5 -65.5q0 -63 -76 -98l-344 -160q-8 -6 -14 0z" />
<glyph unicode="&#xc2;" horiz-adv-x="1523" d="M-33 20v39q0 16 13 17h61q78 0 131 92q16 29 100 241t129 336q57 164 201 537q12 61 4 70q-12 12 -12 24q0 16 20 21q47 12 115 47t88.5 55.5t30.5 20.5q12 0 24 -37q16 -59 115.5 -353t118.5 -364q39 -129 113.5 -343t95.5 -253q49 -94 131 -94h65q16 0 17 -15v-43 q0 -25 -21 -24q-10 0 -39.5 1t-97 3t-166.5 2q-102 0 -191 -3t-95 -3q-20 0 -21 24v41q0 16 16 17h54q43 0 57 17.5t4 58.5q-23 104 -123 411h-475q-115 -330 -127 -395q-4 -16 -4 -43q0 -20 21.5 -34.5t52.5 -14.5h86q20 0 20 -10v-52q0 -20 -16 -20l-86 2q-86 4 -172 4 q-66 0 -116 -2t-75.5 -3t-33.5 -1q-12 0 -13 26zM459 645h426q-14 41 -172 567q-12 37 -21 37q-18 0 -26 -26q-4 -10 -101.5 -280.5t-105.5 -297.5zM487 1597q-8 10 2 21l263 258q25 16 28 16q8 0 33 -24l268 -252q8 -8 0 -17l-14 -18q-4 -10 -16 -4l-275 111l-254 -111 q-14 -6 -20 0z" />
<glyph unicode="&#xc3;" horiz-adv-x="1523" d="M-33 20v39q0 16 13 17h61q78 0 131 92q16 29 100 241t129 336q57 164 201 537q12 61 4 70q-12 12 -12 24q0 16 20 21q47 12 115 47t88.5 55.5t30.5 20.5q12 0 24 -37q16 -59 115.5 -353t118.5 -364q39 -129 113.5 -343t95.5 -253q49 -94 131 -94h65q16 0 17 -15v-43 q0 -25 -21 -24q-10 0 -39.5 1t-97 3t-166.5 2q-102 0 -191 -3t-95 -3q-20 0 -21 24v41q0 16 16 17h54q43 0 57 17.5t4 58.5q-23 104 -123 411h-475q-115 -330 -127 -395q-4 -16 -4 -43q0 -20 21.5 -34.5t52.5 -14.5h86q20 0 20 -10v-52q0 -20 -16 -20l-86 2q-86 4 -172 4 q-66 0 -116 -2t-75.5 -3t-33.5 -1q-12 0 -13 26zM440 1626q12 90 61.5 149.5t119.5 59.5q33 0 180 -37q139 -33 151 -33q57 0 74 74q0 12 12 12h37q10 0 4 -36q-10 -78 -52 -136.5t-107 -58.5q-37 0 -193 37q-98 29 -143 29q-63 0 -82 -84q-6 -12 -17 -13h-36q-14 0 -9 37z M459 645h426q-14 41 -172 567q-12 37 -21 37q-18 0 -26 -26q-4 -10 -101.5 -280.5t-105.5 -297.5z" />
<glyph unicode="&#xc4;" horiz-adv-x="1523" d="M-33 20v39q0 16 13 17h61q78 0 131 92q16 29 100 241t129 336q57 164 201 537q12 61 4 70q-12 12 -12 24q0 16 20 21q47 12 115 47t88.5 55.5t30.5 20.5q12 0 24 -37q16 -59 115.5 -353t118.5 -364q39 -129 113.5 -343t95.5 -253q49 -94 131 -94h65q16 0 17 -15v-43 q0 -25 -21 -24q-10 0 -39.5 1t-97 3t-166.5 2q-102 0 -191 -3t-95 -3q-20 0 -21 24v41q0 16 16 17h54q43 0 57 17.5t4 58.5q-23 104 -123 411h-475q-115 -330 -127 -395q-4 -16 -4 -43q0 -20 21.5 -34.5t52.5 -14.5h86q20 0 20 -10v-52q0 -20 -16 -20l-86 2q-86 4 -172 4 q-66 0 -116 -2t-75.5 -3t-33.5 -1q-12 0 -13 26zM436 1733q0 35 31 70.5t96 35.5q43 0 75 -30.5t32 -84.5q0 -49 -32 -81.5t-75 -32.5q-47 0 -87 28.5t-40 94.5zM459 645h426q-14 41 -172 567q-12 37 -21 37q-18 0 -26 -26q-4 -10 -101.5 -280.5t-105.5 -297.5zM870 1733 q0 35 31 70.5t96 35.5q43 0 77 -30.5t34 -84.5q0 -49 -34 -81.5t-77 -32.5q-47 0 -87 28.5t-40 94.5z" />
<glyph unicode="&#xc5;" horiz-adv-x="1523" d="M-33 20v39q0 16 13 17h61q78 0 131 92q16 29 100 241t129 336q57 164 201 537q12 61 4 70q-12 12 -12 24q0 16 20 19q150 18 174 24q16 6 40 18.5t34 12.5q18 0 37 -53q150 -428 207 -631q39 -129 113.5 -343t95.5 -253q49 -94 131 -94h65q16 0 17 -15v-43q0 -25 -21 -24 q-10 0 -39.5 1t-97 3t-166.5 2q-102 0 -191 -3t-95 -3q-20 0 -21 24v41q0 16 16 17h54q43 0 57 17.5t4 58.5q-23 104 -123 411h-475q-115 -330 -127 -395q-4 -16 -4 -43q0 -20 21.5 -34.5t52.5 -14.5h86q20 0 20 -10v-52q0 -20 -16 -20l-86 2q-86 4 -172 4q-66 0 -116 -2 t-75.5 -3t-33.5 -1q-12 0 -13 26zM459 645h426q-14 41 -172 567q-12 37 -21 37q-18 0 -26 -26q-4 -10 -101.5 -280.5t-105.5 -297.5zM520 1714q0 82 73 134.5t179.5 52.5t165.5 -47.5t59 -118.5q0 -96 -75.5 -142.5t-167.5 -46.5q-98 0 -166 46t-68 122zM670 1724 q0 -111 94 -110.5t94 110.5q0 51 -26.5 80t-63.5 29q-47 -2 -72.5 -34t-25.5 -75z" />
<glyph unicode="&#xc6;" horiz-adv-x="1918" d="M-139 8v53q0 14 16 15h62q47 0 110 92q20 25 328 577q27 49 99.5 177.5t131 231.5t66.5 124q20 49 13 73.5t-36 24.5h-37q-16 0 -16 15v47q0 18 25 18l43 -2h77q119 -4 179 -4h688q25 0 53 4q6 0 16.5 1t12.5 1q12 0 16 -10q82 -287 90 -328q4 -16 -4 -20l-35 -21 q-10 -8 -22 13q-4 8 -101.5 113.5t-115.5 115.5q-59 53 -148 53l-307 4l-4 -645q197 0 237 10q72 16 95 70q33 74 32 115q0 16 17 16l53 -4q20 0 16 -16q-8 -37 -8 -222q0 -102 13 -225q0 -14 -17 -16l-45 -10q-10 -2 -16 14q0 4 -15.5 50t-17.5 56q-16 61 -102 72 q-59 8 -242 8v-55q0 -66 4 -203t4 -145q0 -80 18.5 -115t55.5 -45q66 -16 172 -16q70 0 160 8q70 6 159 69q20 14 95 101.5t94 116.5q10 12 24 4l29 -17q12 -6 12 -16l-104 -313q-8 -29 -39 -29q-4 0 -29.5 1t-82 1t-140.5 1t-231.5 2t-327.5 1q-98 0 -185 -3t-90 -3 q-20 0 -20 18v49q0 14 20 15h107q33 0 43 16.5t10 71.5v485h-393q-57 -104 -128 -251.5t-85 -184.5q-20 -53 -20 -92q0 -45 57 -45h78q20 0 20 -17v-51q0 -14 -20 -14q-6 0 -32 1l-78 3t-120 2q-55 0 -105 -2t-79 -3t-37 -1q-16 0 -16 14zM471 731h348v551q0 29 -16 29 q-18 0 -31 -21z" />
<glyph unicode="&#xc7;" horiz-adv-x="1482" d="M86 715q0 322 209 549q203 217 532 217q238 0 414 -99q37 -20 41 0l16 54q4 12 33 12q18 0 23.5 -6t5.5 -27q0 -57 49 -426q2 -18 -8 -20l-39 -13q-12 -6 -23 21q-51 152 -159 266q-160 152 -357 152q-156 0 -264 -88t-153.5 -217t-45.5 -285q0 -125 43 -273.5 t146 -259.5q152 -160 352 -159q160 0 290 68.5t200 168.5q16 23 24 15l35 -31q10 -10 4 -21q-229 -330 -582 -342l-98 -118q78 -14 123 -55.5t45 -92.5q0 -90 -113.5 -145.5t-267.5 -55.5q-45 0 -45 41q0 33 74 33q57 0 106 30t49 81q0 78 -127 102l146 182 q-266 14 -457 189q-106 96 -163.5 250.5t-57.5 302.5z" />
<glyph unicode="&#xc8;" horiz-adv-x="1404" d="M86 10v49q0 16 20 17h70q70 0 86.5 15t16.5 73v487v201q0 393 -9 451q-6 41 -25.5 56t-64.5 15h-78q-12 0 -12 15v53q0 14 12 14l95 -4q92 -4 192 -2h57q45 0 326 2t326 2q18 0 49 1t33 1q12 0 16 -12q2 -8 24.5 -87t44 -155t25.5 -84q6 -16 -6 -22l-37 -17 q-10 -4 -18 11q-12 18 -103.5 114t-121.5 115q-88 51 -156 53l-311 8l-5 -592q193 0 234 11q63 12 94 73q33 72 33 115q0 16 16 17l54 -5q14 0 12 -16q-4 -33 -4 -221q0 -90 12 -225q0 -12 -16 -15l-45 -8q-10 -2 -17 14q-14 59 -33 103q-31 68 -102 74q-111 12 -238 12 l3 -123q6 -332 6 -348q0 -137 82 -160q66 -16 159 -16q90 0 172 8q98 10 168 69q63 55 191 218q10 14 22 8l33 -21q10 -6 4 -20l-98 -307q-10 -31 -45 -31q-2 0 -20.5 1t-62.5 2t-99 1q-39 0 -262.5 1t-419.5 1q-41 0 -98.5 -1t-76.5 -1q-82 -4 -88 -4q-16 0 -16 16z M408 1831q0 33 27.5 63.5t66.5 30.5q49 0 86 -37l274 -266q10 -10 4 -16l-22 -31q-6 -8 -19 -2l-348 160q-29 14 -49 42.5t-20 55.5z" />
<glyph unicode="&#xc9;" horiz-adv-x="1404" d="M86 10v49q0 16 20 17h70q70 0 86.5 15t16.5 73v487v201q0 393 -9 451q-6 41 -25.5 56t-64.5 15h-78q-12 0 -12 15v53q0 14 12 14l95 -4q92 -4 192 -2h57q45 0 326 2t326 2q18 0 49 1t33 1q12 0 16 -12q2 -8 24.5 -87t44 -155t25.5 -84q6 -16 -6 -22l-37 -17 q-10 -4 -18 11q-12 18 -103.5 114t-121.5 115q-88 51 -156 53l-311 8l-5 -592q193 0 234 11q63 12 94 73q33 72 33 115q0 16 16 17l54 -5q14 0 12 -16q-4 -33 -4 -221q0 -90 12 -225q0 -12 -16 -15l-45 -8q-10 -2 -17 14q-14 59 -33 103q-31 68 -102 74q-111 12 -238 12 l3 -123q6 -332 6 -348q0 -137 82 -160q66 -16 159 -16q90 0 172 8q98 10 168 69q63 55 191 218q10 14 22 8l33 -21q10 -6 4 -20l-98 -307q-10 -31 -45 -31q-2 0 -20.5 1t-62.5 2t-99 1q-39 0 -262.5 1t-419.5 1q-41 0 -98.5 -1t-76.5 -1q-82 -4 -88 -4q-16 0 -16 16z M639 1606q-8 8 4 16l281 268q35 35 86 35q37 0 62.5 -28.5t25.5 -65.5q0 -63 -76 -98l-344 -160q-8 -6 -14 0z" />
<glyph unicode="&#xca;" horiz-adv-x="1404" d="M86 10v49q0 16 20 17h70q70 0 86.5 15t16.5 73v487v201q0 393 -9 451q-6 41 -25.5 56t-64.5 15h-78q-12 0 -12 15v53q0 14 12 14l95 -4q92 -4 192 -2h57q45 0 326 2t326 2q18 0 49 1t33 1q12 0 16 -12q2 -8 24.5 -87t44 -155t25.5 -84q6 -16 -6 -22l-37 -17 q-10 -4 -18 11q-12 18 -103.5 114t-121.5 115q-88 51 -156 53l-311 8l-5 -592q193 0 234 11q63 12 94 73q33 72 33 115q0 16 16 17l54 -5q14 0 12 -16q-4 -33 -4 -221q0 -90 12 -225q0 -12 -16 -15l-45 -8q-10 -2 -17 14q-14 59 -33 103q-31 68 -102 74q-111 12 -238 12 l3 -123q6 -332 6 -348q0 -137 82 -160q66 -16 159 -16q90 0 172 8q98 10 168 69q63 55 191 218q10 14 22 8l33 -21q10 -6 4 -20l-98 -307q-10 -31 -45 -31q-2 0 -20.5 1t-62.5 2t-99 1q-39 0 -262.5 1t-419.5 1q-41 0 -98.5 -1t-76.5 -1q-82 -4 -88 -4q-16 0 -16 16z M438 1597q-8 10 2 21l262 258q25 16 29 16q8 0 33 -24l268 -252q8 -8 0 -17l-14 -18q-4 -10 -17 -4l-274 111l-254 -111q-14 -6 -20 0z" />
<glyph unicode="&#xcb;" horiz-adv-x="1404" d="M86 10v49q0 16 20 17h70q70 0 86.5 15t16.5 73v487v201q0 393 -9 451q-6 41 -25.5 56t-64.5 15h-78q-12 0 -12 15v53q0 14 12 14l95 -4q92 -4 192 -2h57q45 0 326 2t326 2q18 0 49 1t33 1q12 0 16 -12q2 -8 24.5 -87t44 -155t25.5 -84q6 -16 -6 -22l-37 -17 q-10 -4 -18 11q-12 18 -103.5 114t-121.5 115q-88 51 -156 53l-311 8l-5 -592q193 0 234 11q63 12 94 73q33 72 33 115q0 16 16 17l54 -5q14 0 12 -16q-4 -33 -4 -221q0 -90 12 -225q0 -12 -16 -15l-45 -8q-10 -2 -17 14q-14 59 -33 103q-31 68 -102 74q-111 12 -238 12 l3 -123q6 -332 6 -348q0 -137 82 -160q66 -16 159 -16q90 0 172 8q98 10 168 69q63 55 191 218q10 14 22 8l33 -21q10 -6 4 -20l-98 -307q-10 -31 -45 -31q-2 0 -20.5 1t-62.5 2t-99 1q-39 0 -262.5 1t-419.5 1q-41 0 -98.5 -1t-76.5 -1q-82 -4 -88 -4q-16 0 -16 16z M387 1733q0 35 31 70.5t96 35.5q43 0 75 -30.5t32 -84.5q0 -49 -32 -81.5t-75 -32.5q-47 0 -87 28.5t-40 94.5zM821 1733q0 35 31 70.5t96 35.5q43 0 77 -30.5t34 -84.5q0 -49 -34 -81.5t-77 -32.5q-47 0 -87 28.5t-40 94.5z" />
<glyph unicode="&#xcc;" horiz-adv-x="794" d="M41 1831q0 33 27.5 63.5t66.5 30.5q49 0 86 -37l275 -266q10 -10 4 -16l-23 -31q-6 -8 -18 -2l-348 160q-29 14 -49.5 42.5t-20.5 55.5zM53 1389v53q0 14 13 14q6 0 48 -1t118.5 -3t164.5 -2q86 0 151.5 2t98.5 3t41 1q16 0 17 -18v-47q0 -16 -17 -17h-78q-78 0 -78 -55 q0 -10 -2 -247t-2 -249v-159q0 -10 2 -256t2 -258q0 -45 19.5 -59.5t62.5 -14.5h86q16 0 17 -15v-51q0 -16 -21 -16q-6 0 -42 1t-104.5 3t-152.5 2q-90 0 -163.5 -2t-110.5 -3t-41 -1q-16 0 -16 14v55q0 12 16 13h82q86 0 94 59q8 57 8 582v143q0 365 -6 445q-4 37 -22.5 53 t-61.5 16h-106q-16 0 -17 15z" />
<glyph unicode="&#xcd;" horiz-adv-x="794" d="M53 1389v53q0 14 13 14q6 0 48 -1t118.5 -3t164.5 -2q86 0 151.5 2t98.5 3t41 1q16 0 17 -18v-47q0 -16 -17 -17h-78q-78 0 -78 -55q0 -10 -2 -247t-2 -249v-159q0 -10 2 -256t2 -258q0 -45 19.5 -59.5t62.5 -14.5h86q16 0 17 -15v-51q0 -16 -21 -16q-6 0 -42 1t-104.5 3 t-152.5 2q-90 0 -163.5 -2t-110.5 -3t-41 -1q-16 0 -16 14v55q0 12 16 13h82q86 0 94 59q8 57 8 582v143q0 365 -6 445q-4 37 -22.5 53t-61.5 16h-106q-16 0 -17 15zM293 1606q-8 8 4 16l281 268q35 35 86 35q37 0 62.5 -28.5t25.5 -65.5q0 -63 -76 -98l-344 -160 q-9 -6 -15 0z" />
<glyph unicode="&#xce;" horiz-adv-x="794" d="M53 1389v53q0 14 13 14q6 0 48 -1t118.5 -3t164.5 -2q86 0 151.5 2t98.5 3t41 1q16 0 17 -18v-47q0 -16 -17 -17h-78q-78 0 -78 -55q0 -10 -2 -247t-2 -249v-159q0 -10 2 -256t2 -258q0 -45 19.5 -59.5t62.5 -14.5h86q16 0 17 -15v-51q0 -16 -21 -16q-6 0 -42 1t-104.5 3 t-152.5 2q-90 0 -163.5 -2t-110.5 -3t-41 -1q-16 0 -16 14v55q0 12 16 13h82q86 0 94 59q8 57 8 582v143q0 365 -6 445q-4 37 -22.5 53t-61.5 16h-106q-16 0 -17 15zM102 1597q-8 10 2 21l263 258q25 16 28 16q8 0 33 -24l268 -252q8 -8 0 -17l-14 -18q-4 -10 -16 -4 l-275 111l-254 -111q-14 -6 -20 0z" />
<glyph unicode="&#xcf;" horiz-adv-x="794" d="M53 1389v53q0 14 13 14q6 0 48 -1t118.5 -3t164.5 -2q86 0 151.5 2t98.5 3t41 1q16 0 17 -18v-47q0 -16 -17 -17h-78q-78 0 -78 -55q0 -10 -2 -247t-2 -249v-159q0 -10 2 -256t2 -258q0 -45 19.5 -59.5t62.5 -14.5h86q16 0 17 -15v-51q0 -16 -21 -16q-6 0 -42 1t-104.5 3 t-152.5 2q-90 0 -163.5 -2t-110.5 -3t-41 -1q-16 0 -16 14v55q0 12 16 13h82q86 0 94 59q8 57 8 582v143q0 365 -6 445q-4 37 -22.5 53t-61.5 16h-106q-16 0 -17 15zM61 1733q0 35 31 70.5t96 35.5q43 0 75 -30.5t32 -84.5q0 -49 -32 -81.5t-75 -32.5q-47 0 -87 28.5 t-40 94.5zM496 1733q0 35 30.5 70.5t96.5 35.5q43 0 76.5 -30.5t33.5 -84.5q0 -49 -32.5 -81.5t-77.5 -32.5q-47 0 -87 28.5t-40 94.5z" />
<glyph unicode="&#xd0;" horiz-adv-x="1712" d="M53 10v49q0 16 17 17h118q59 0 68 51q14 68 14 504v57h-184q-12 0 -12 17v53q0 16 16 16h180v168q0 283 -12 375q-4 57 -74 57h-110q-16 0 -17 15v51q0 16 17 16q6 0 42 -1t107.5 -3t161.5 -2q37 0 161 3t146 3q233 0 394 -39t290 -147q229 -188 230 -520 q0 -172 -48.5 -298t-152.5 -239q-55 -63 -132 -107.5t-141.5 -66t-151.5 -32.5t-128 -12t-107 -1q-8 0 -168.5 3t-220.5 3q-78 0 -144.5 -2t-102 -3t-39.5 -1q-16 0 -17 16zM528 651q0 -20 2 -182t2 -227q0 -61 35 -113q37 -57 183 -57q264 0 426 207q147 190 147 466 q0 121 -46 243t-118 204q-178 190 -459 190q-98 0 -131 -16q-37 -18 -37 -92q-4 -86 -4 -385v-115h316q16 0 16 -12v-62q0 -12 -16 -12h-316v-37z" />
<glyph unicode="&#xd1;" horiz-adv-x="1654" d="M29 1389v55q0 12 12 12q4 0 11 -1t22.5 -2t29.5 -1q37 -2 183 -2q41 0 90 4q14 0 33.5 1t23.5 1q31 0 49 -18q16 -16 224 -277.5t239 -304.5q47 -55 381 -471h8v213q0 283 -4 385q-14 289 -22 313q-10 37 -41 57.5t-68 20.5h-65q-12 0 -13 19v47q0 16 17 16q6 0 35.5 -1 t81 -3t112.5 -2q53 0 97 2t67.5 3t32.5 1q20 0 20 -14v-47q0 -20 -12 -21h-57q-59 0 -68 -108q-31 -418 -31 -693v-540q0 -57 -24 -58q-37 0 -70 33q-6 8 -42 49t-96.5 113t-115.5 137q-55 70 -138 169t-131 158.5t-59 74.5q-16 16 -196 239t-185 228h-12v-250 q0 -381 21 -699q4 -80 26.5 -115.5t75.5 -35.5h53q16 0 17 -19v-47q0 -16 -17 -16q-4 0 -90 3t-131 3q-31 0 -119 -3t-94 -3q-12 0 -12 18v51q0 12 12 13h70q41 0 62.5 39t29.5 131q14 258 14 651v260q0 92 -46 154.5t-114 62.5h-65q-12 2 -12 15zM547 1626q12 90 61 149.5 t119 59.5q33 0 180 -37q139 -33 152 -33q57 0 74 74q0 12 12 12h37q10 0 4 -36q-10 -78 -52 -136.5t-108 -58.5q-37 0 -192 37q-98 29 -144 29q-63 0 -82 -84q-6 -12 -16 -13h-37q-14 0 -8 37z" />
<glyph unicode="&#xd2;" horiz-adv-x="1740" d="M106 711q0 274 189 508q212 262 577 262q281 0 484 -164q279 -227 278 -606q0 -260 -151 -451q-111 -137 -255.5 -214t-359.5 -77q-238 0 -462 135q-121 74 -210.5 237t-89.5 370zM385 780q0 -188 53.5 -335.5t133 -226.5t160.5 -119t153 -40q117 0 208 50.5t140 122 t81 163.5t41 163t9 132q0 160 -50 297t-127 222t-162 133.5t-161 48.5q-2 0 -20.5 1t-30.5 0t-35.5 -3.5t-45 -10.5t-49.5 -20t-56.5 -32.5t-57.5 -49.5q-88 -86 -136 -224.5t-48 -271.5zM535 1831q0 33 27.5 63.5t66.5 30.5q49 0 86 -37l274 -266q10 -10 4 -16l-22 -31 q-6 -8 -19 -2l-348 160q-29 14 -49 42.5t-20 55.5z" />
<glyph unicode="&#xd3;" horiz-adv-x="1740" d="M106 711q0 274 189 508q212 262 577 262q281 0 484 -164q279 -227 278 -606q0 -260 -151 -451q-111 -137 -255.5 -214t-359.5 -77q-238 0 -462 135q-121 74 -210.5 237t-89.5 370zM385 780q0 -188 53.5 -335.5t133 -226.5t160.5 -119t153 -40q117 0 208 50.5t140 122 t81 163.5t41 163t9 132q0 160 -50 297t-127 222t-162 133.5t-161 48.5q-2 0 -20.5 1t-30.5 0t-35.5 -3.5t-45 -10.5t-49.5 -20t-56.5 -32.5t-57.5 -49.5q-88 -86 -136 -224.5t-48 -271.5zM725 1606q-8 8 4 16l281 268q35 35 86 35q37 0 62.5 -28.5t25.5 -65.5q0 -63 -76 -98 l-344 -160q-8 -6 -14 0z" />
<glyph unicode="&#xd4;" horiz-adv-x="1740" d="M106 711q0 274 189 508q212 262 577 262q281 0 484 -164q279 -227 278 -606q0 -260 -151 -451q-111 -137 -255.5 -214t-359.5 -77q-238 0 -462 135q-121 74 -210.5 237t-89.5 370zM385 780q0 -188 53.5 -335.5t133 -226.5t160.5 -119t153 -40q117 0 208 50.5t140 122 t81 163.5t41 163t9 132q0 160 -50 297t-127 222t-162 133.5t-161 48.5q-2 0 -20.5 1t-30.5 0t-35.5 -3.5t-45 -10.5t-49.5 -20t-56.5 -32.5t-57.5 -49.5q-88 -86 -136 -224.5t-48 -271.5zM575 1597q-8 10 3 21l262 258q25 16 28 16q8 0 33 -24l268 -252q8 -8 0 -17l-14 -18 q-4 -10 -16 -4l-275 111l-254 -111q-14 -6 -20 0z" />
<glyph unicode="&#xd5;" horiz-adv-x="1740" d="M106 711q0 274 189 508q212 262 577 262q281 0 484 -164q279 -227 278 -606q0 -260 -151 -451q-111 -137 -255.5 -214t-359.5 -77q-238 0 -462 135q-121 74 -210.5 237t-89.5 370zM385 780q0 -188 53.5 -335.5t133 -226.5t160.5 -119t153 -40q117 0 208 50.5t140 122 t81 163.5t41 163t9 132q0 160 -50 297t-127 222t-162 133.5t-161 48.5q-2 0 -20.5 1t-30.5 0t-35.5 -3.5t-45 -10.5t-49.5 -20t-56.5 -32.5t-57.5 -49.5q-88 -86 -136 -224.5t-48 -271.5zM549 1626q12 90 61 149.5t119 59.5q33 0 180 -37q139 -33 152 -33q57 0 74 74 q0 12 12 12h37q10 0 4 -36q-10 -78 -52 -136.5t-108 -58.5q-37 0 -192 37q-98 29 -144 29q-63 0 -82 -84q-6 -12 -16 -13h-37q-14 0 -8 37z" />
<glyph unicode="&#xd6;" horiz-adv-x="1740" d="M106 711q0 274 189 508q212 262 577 262q281 0 484 -164q279 -227 278 -606q0 -260 -151 -451q-111 -137 -255.5 -214t-359.5 -77q-238 0 -462 135q-121 74 -210.5 237t-89.5 370zM385 780q0 -188 53.5 -335.5t133 -226.5t160.5 -119t153 -40q117 0 208 50.5t140 122 t81 163.5t41 163t9 132q0 160 -50 297t-127 222t-162 133.5t-161 48.5q-2 0 -20.5 1t-30.5 0t-35.5 -3.5t-45 -10.5t-49.5 -20t-56.5 -32.5t-57.5 -49.5q-88 -86 -136 -224.5t-48 -271.5zM535 1733q0 35 30.5 70.5t96.5 35.5q43 0 74.5 -30.5t31.5 -84.5q0 -49 -31.5 -81.5 t-74.5 -32.5q-47 0 -87 28.5t-40 94.5zM969 1733q0 35 30.5 70.5t96.5 35.5q43 0 76.5 -30.5t33.5 -84.5q0 -49 -33.5 -81.5t-76.5 -32.5q-47 0 -87 28.5t-40 94.5z" />
<glyph unicode="&#xd7;" d="M123 205l291 287l-291 286l98 103l295 -299l295 299l90 -99l-295 -286l295 -291l-94 -107l-299 303l-303 -303z" />
<glyph unicode="&#xd8;" horiz-adv-x="1740" d="M106 711q0 279 189 512q215 258 577 258q285 0 500 -174l168 168q2 6 8 7t8 -3l5 -4l53 -41l4 -9q8 -8 0 -16l-176 -176q193 -213 192 -526q0 -242 -151 -447q-213 -291 -615 -291q-100 0 -226 33t-224 92q-25 14 -58 41l-155 -155q-12 -12 -17 -9q-4 0 -12 9l-41 40 q-8 8 -8 13q-2 2 4 16l156 156q-180 211 -181 506zM385 774q0 -231 78 -393l766 778q-76 113 -176.5 172.5t-188.5 59.5q-2 0 -19.5 1t-30.5 0t-36.5 -3.5t-45 -9.5t-48.5 -19t-55.5 -32.5t-55.5 -47.5q-90 -90 -139 -231.5t-49 -274.5zM512 291q80 -115 184.5 -173.5 t188.5 -58.5q117 0 207 49.5t139 120t80.5 161.5t42 163t10.5 135q0 207 -82 385z" />
<glyph unicode="&#xd9;" horiz-adv-x="1525" d="M23 1393v47q0 16 20 16q4 0 43 -1t112.5 -3t159.5 -2q76 0 143.5 2t106.5 3t45 1q16 0 17 -14v-51q0 -16 -17 -17h-86q-45 0 -71.5 -23.5t-28.5 -56.5q-6 -74 -6 -266v-254q0 -215 6 -313q12 -174 72 -254q94 -127 278 -127q74 0 150.5 26.5t124.5 71.5q119 119 118 346 v369q0 219 -22 391q-4 41 -27.5 65.5t-56.5 24.5h-74q-16 0 -16 15v51q0 16 16 16q6 0 41 -1t92.5 -3t116.5 -2q55 0 103.5 2t75 3t30.5 1q20 0 20 -16v-47q0 -18 -12 -19h-74q-72 0 -86 -80q-4 -25 -4 -338q0 -344 -12 -467q-18 -256 -172 -393q-141 -127 -373 -127 q-178 0 -295 49q-178 74 -241 275q-37 116 -37 493v486q0 53 -15.5 77.5t-54.5 24.5h-94q-16 0 -16 19zM489 1831q0 33 28 63.5t67 30.5q49 0 86 -37l274 -266q10 -10 4 -16l-22 -31q-6 -8 -19 -2l-348 160q-29 14 -49.5 42.5t-20.5 55.5z" />
<glyph unicode="&#xda;" horiz-adv-x="1525" d="M23 1393v47q0 16 20 16q4 0 43 -1t112.5 -3t159.5 -2q76 0 143.5 2t106.5 3t45 1q16 0 17 -14v-51q0 -16 -17 -17h-86q-45 0 -71.5 -23.5t-28.5 -56.5q-6 -74 -6 -266v-254q0 -215 6 -313q12 -174 72 -254q94 -127 278 -127q74 0 150.5 26.5t124.5 71.5q119 119 118 346 v369q0 219 -22 391q-4 41 -27.5 65.5t-56.5 24.5h-74q-16 0 -16 15v51q0 16 16 16q6 0 41 -1t92.5 -3t116.5 -2q55 0 103.5 2t75 3t30.5 1q20 0 20 -16v-47q0 -18 -12 -19h-74q-72 0 -86 -80q-4 -25 -4 -338q0 -344 -12 -467q-18 -256 -172 -393q-141 -127 -373 -127 q-178 0 -295 49q-178 74 -241 275q-37 116 -37 493v486q0 53 -15.5 77.5t-54.5 24.5h-94q-16 0 -16 19zM782 1606q-8 8 4 16l281 268q35 35 86 35q37 0 62.5 -28.5t25.5 -65.5q0 -63 -76 -98l-344 -160q-8 -6 -14 0z" />
<glyph unicode="&#xdb;" horiz-adv-x="1525" d="M23 1393v47q0 16 20 16q4 0 43 -1t112.5 -3t159.5 -2q76 0 143.5 2t106.5 3t45 1q16 0 17 -14v-51q0 -16 -17 -17h-86q-45 0 -71.5 -23.5t-28.5 -56.5q-6 -74 -6 -266v-254q0 -215 6 -313q12 -174 72 -254q94 -127 278 -127q74 0 150.5 26.5t124.5 71.5q119 119 118 346 v369q0 219 -22 391q-4 41 -27.5 65.5t-56.5 24.5h-74q-16 0 -16 15v51q0 16 16 16q6 0 41 -1t92.5 -3t116.5 -2q55 0 103.5 2t75 3t30.5 1q20 0 20 -16v-47q0 -18 -12 -19h-74q-72 0 -86 -80q-4 -25 -4 -338q0 -344 -12 -467q-18 -256 -172 -393q-141 -127 -373 -127 q-178 0 -295 49q-178 74 -241 275q-37 116 -37 493v486q0 53 -15.5 77.5t-54.5 24.5h-94q-16 0 -16 19zM551 1597q-8 10 2 21l262 258q25 16 29 16q8 0 33 -24l268 -252q8 -8 0 -17l-15 -18q-4 -10 -16 -4l-274 111l-254 -111q-14 -6 -21 0z" />
<glyph unicode="&#xdc;" horiz-adv-x="1525" d="M23 1393v47q0 16 20 16q4 0 43 -1t112.5 -3t159.5 -2q76 0 143.5 2t106.5 3t45 1q16 0 17 -14v-51q0 -16 -17 -17h-86q-45 0 -71.5 -23.5t-28.5 -56.5q-6 -74 -6 -266v-254q0 -215 6 -313q12 -174 72 -254q94 -127 278 -127q74 0 150.5 26.5t124.5 71.5q119 119 118 346 v369q0 219 -22 391q-4 41 -27.5 65.5t-56.5 24.5h-74q-16 0 -16 15v51q0 16 16 16q6 0 41 -1t92.5 -3t116.5 -2q55 0 103.5 2t75 3t30.5 1q20 0 20 -16v-47q0 -18 -12 -19h-74q-72 0 -86 -80q-4 -25 -4 -338q0 -344 -12 -467q-18 -256 -172 -393q-141 -127 -373 -127 q-178 0 -295 49q-178 74 -241 275q-37 116 -37 493v486q0 53 -15.5 77.5t-54.5 24.5h-94q-16 0 -16 19zM510 1733q0 35 30.5 70.5t96.5 35.5q43 0 74.5 -30.5t31.5 -84.5q0 -49 -31.5 -81.5t-74.5 -32.5q-47 0 -87 28.5t-40 94.5zM944 1733q0 35 31 70.5t96 35.5 q43 0 77 -30.5t34 -84.5q0 -49 -34 -81.5t-77 -32.5q-47 0 -87 28.5t-40 94.5z" />
<glyph unicode="&#xdd;" horiz-adv-x="1433" d="M23 1389v55q0 12 16 12q2 0 39 -1t99.5 -3t131.5 -2q92 0 163 2t103.5 3t36.5 1q16 0 17 -14v-47q0 -20 -17 -21h-53q-63 0 -57 -59q2 -16 64.5 -140t141 -274.5t99.5 -191.5q334 551 338 591q8 74 -70 74h-53q-16 0 -16 17v51q0 14 12 14q6 0 39 -1t90 -3t121 -2 q57 0 101 2t66.5 3t28.5 1q16 0 17 -14v-47q0 -20 -17 -21h-45q-66 0 -110 -47q-25 -29 -209.5 -312.5t-241.5 -383.5v-250q0 -168 6 -236q4 -45 23.5 -57t56.5 -12h68q14 0 14 -15v-47q0 -20 -14 -20q-4 0 -39 1t-101.5 3t-148.5 2q-88 0 -154.5 -2t-97.5 -3t-33 -1 q-14 0 -14 18v47q0 16 14 17h84q68 0 72 51q6 86 6 381v98q-47 88 -216 382t-206 341q-39 45 -102 45h-37q-16 0 -16 15zM786 1606q-8 8 5 16l280 268q35 35 86 35q37 0 62.5 -28.5t25.5 -65.5q0 -63 -76 -98l-344 -160q-8 -6 -14 0z" />
<glyph unicode="&#xde;" horiz-adv-x="1290" d="M66 1389v51q0 16 12 16q4 0 38 -1t104.5 -3t168.5 -2q84 0 151.5 2t103.5 3t44 1q16 0 17 -14v-49q0 -18 -21 -19h-106q-55 0 -62 -31q-4 -33 -4 -184q18 0 62 2t73 2q164 0 261.5 -21.5t181.5 -80.5q147 -104 147 -287q0 -188 -138 -298.5t-374 -110.5q-133 0 -213 12 v-66q0 -143 2 -170q8 -66 72 -65h106q16 0 17 -15v-47q0 -20 -17 -20q-6 0 -40 1t-102.5 3t-160.5 2q-90 0 -157.5 -2t-98.5 -3t-35 -1q-16 0 -16 14v51q0 16 12 17h82q41 0 56.5 11t19.5 52q6 62 6 578v237q0 352 -2 375q-2 45 -80 45h-94q-16 0 -16 15zM512 455 q45 -20 164 -21q115 0 196.5 94.5t81.5 233.5q0 74 -25.5 134t-62.5 96t-81 59.5t-78.5 33t-59.5 9.5q-98 -1 -135 -13v-626z" />
<glyph unicode="&#xdf;" horiz-adv-x="1153" d="M39 14v43q0 12 20 13h82q31 0 42.5 16t11.5 53l-2 578l-121 8q-12 0 -13 16v54q0 12 17 14l117 10v72q-2 274 145 422q168 168 340 168q104 0 179 -62.5t75 -169.5q0 -129 -131 -266q-94 -94 -94 -180q0 -49 36.5 -81t120.5 -79q14 -8 23 -12q123 -70 174 -147.5 t51 -204.5q-4 -121 -96 -212.5t-236 -91.5q-47 0 -96 16.5t-68 33.5q-16 16 -16 24l-16 148q-4 18 8 20l37 12q12 2 20 -12l41 -78q41 -80 123 -80q53 0 94 37t41 101q0 135 -131 217q-8 4 -45 27.5t-47 30.5t-40 28.5t-40 33t-29.5 35t-26.5 43t-14.5 47t-7.5 58.5 q0 57 27 114.5t65.5 113.5t47.5 75q41 82 41 180q0 70 -48.5 122t-111.5 52q-78 0 -127 -69q-16 -20 -26.5 -52t-16.5 -60t-8 -76t-3 -72.5t0 -80t1 -71.5v-315q0 -106 2 -214t4 -173.5t2 -71.5q0 -49 33 -49h40q25 0 25 -15v-37q0 -25 -16 -24q-4 0 -36 1t-77 3t-84 2 q-37 0 -95.5 -2t-102.5 -3t-48 -1q-16 0 -16 20z" />
<glyph unicode="&#xe0;" horiz-adv-x="907" d="M74 596q0 98 94 168q152 115 332 115q123 0 188 -58q49 -45 49 -153l4 -324v-98q0 -80 12.5 -112t41.5 -32q49 0 65 33q8 14 21 8l24 -16q14 -8 4 -33q-66 -119 -188 -119q-131 0 -172 125h-8q-68 -74 -179 -110q-47 -14 -131 -15q-59 0 -100 47.5t-41 129.5 q0 168 189 251q225 109 249 127v107q-8 90 -32 115q-29 31 -103 30q-70 0 -119 -37q-12 -10 -14 -22t2 -36.5t4 -41.5q0 -119 -123 -119q-29 0 -49 18.5t-20 51.5zM244 1283q18 60 78 60q61 0 104 -65l164 -246q6 -6 0 -12l-29 -25q-6 -6 -12 0l-264 185q-59 43 -41 103z M303 213q0 -59 27.5 -92t66.5 -33q43 2 87 35.5t44 62.5v269q-14 -10 -69.5 -40t-80 -48.5t-50 -59.5t-25.5 -94z" />
<glyph unicode="&#xe1;" horiz-adv-x="907" d="M74 596q0 98 94 168q152 115 332 115q123 0 188 -58q49 -45 49 -153l4 -324v-98q0 -80 12.5 -112t41.5 -32q49 0 65 33q8 14 21 8l24 -16q14 -8 4 -33q-66 -119 -188 -119q-131 0 -172 125h-8q-68 -74 -179 -110q-47 -14 -131 -15q-59 0 -100 47.5t-41 129.5 q0 168 189 251q225 109 249 127v107q-8 90 -32 115q-29 31 -103 30q-70 0 -119 -37q-12 -10 -14 -22t2 -36.5t4 -41.5q0 -119 -123 -119q-29 0 -49 18.5t-20 51.5zM303 213q0 -59 27.5 -92t66.5 -33q43 2 87 35.5t44 62.5v269q-14 -10 -69.5 -40t-80 -48.5t-50 -59.5 t-25.5 -94zM410 1016q-8 8 0 16l165 246q47 68 101 65q39 2 63.5 -27.5t19.5 -70.5t-46 -69l-262 -181q-9 -8 -17 0z" />
<glyph unicode="&#xe2;" horiz-adv-x="907" d="M74 596q0 98 94 168q152 115 332 115q123 0 188 -58q49 -45 49 -153l4 -324v-98q0 -80 12.5 -112t41.5 -32q49 0 65 33q8 14 21 8l24 -16q14 -8 4 -33q-66 -119 -188 -119q-131 0 -172 125h-8q-68 -74 -179 -110q-47 -14 -131 -15q-59 0 -100 47.5t-41 129.5 q0 168 189 251q225 109 249 127v107q-8 90 -32 115q-29 31 -103 30q-70 0 -119 -37q-12 -10 -14 -22t2 -36.5t4 -41.5q0 -119 -123 -119q-29 0 -49 18.5t-20 51.5zM238 1020q-8 8 2 20l219 279q16 16 24 16q10 0 25 -20l227 -277q10 -10 2 -18l-16 -16q-4 -10 -16 -5 l-226 136l-205 -131q-14 -8 -20 -5zM303 213q0 -59 27.5 -92t66.5 -33q43 2 87 35.5t44 62.5v269q-14 -10 -69.5 -40t-80 -48.5t-50 -59.5t-25.5 -94z" />
<glyph unicode="&#xe3;" horiz-adv-x="907" d="M74 596q0 98 94 168q152 115 332 115q123 0 188 -58q49 -45 49 -153l4 -324v-98q0 -80 12.5 -112t41.5 -32q49 0 65 33q8 14 21 8l24 -16q14 -8 4 -33q-66 -119 -188 -119q-131 0 -172 125h-8q-68 -74 -179 -110q-47 -14 -131 -15q-59 0 -100 47.5t-41 129.5 q0 168 189 251q225 109 249 127v107q-8 90 -32 115q-29 31 -103 30q-70 0 -119 -37q-12 -10 -14 -22t2 -36.5t4 -41.5q0 -119 -123 -119q-29 0 -49 18.5t-20 51.5zM160 1044q12 84 57 138.5t107 54.5q53 0 151 -33q94 -29 131 -28q53 0 70 61q4 12 12 12h37q14 0 6 -37 q-12 -66 -56 -118t-110 -52q-43 0 -151 33q-74 25 -119 25q-27 0 -49.5 -19.5t-28.5 -60.5q0 -8 -12 -8h-39q-12 0 -6 32zM303 213q0 -59 27.5 -92t66.5 -33q43 2 87 35.5t44 62.5v269q-14 -10 -69.5 -40t-80 -48.5t-50 -59.5t-25.5 -94z" />
<glyph unicode="&#xe4;" horiz-adv-x="907" d="M74 596q0 98 94 168q152 115 332 115q123 0 188 -58q49 -45 49 -153l4 -324v-98q0 -80 12.5 -112t41.5 -32q49 0 65 33q8 14 21 8l24 -16q14 -8 4 -33q-66 -119 -188 -119q-131 0 -172 125h-8q-68 -74 -179 -110q-47 -14 -131 -15q-59 0 -100 47.5t-41 129.5 q0 166 189 251q205 94 249 127v107q-8 90 -32 115q-29 31 -103 30q-70 0 -119 -37q-12 -10 -14 -22t2 -36.5t4 -41.5q0 -119 -123 -119q-29 0 -49 18.5t-20 51.5zM158 1202q0 37 28.5 74t92.5 37q45 0 76.5 -32t31.5 -87q0 -49 -30.5 -76.5t-77.5 -27.5q-45 0 -83 25.5 t-38 86.5zM303 213q0 -59 27.5 -93t66.5 -32q43 2 87 35.5t44 62.5v269q-14 -10 -69.5 -40t-80 -48.5t-50 -59.5t-25.5 -94zM522 1202q0 37 29 74t92 37q45 0 77 -32t32 -87q0 -49 -32 -76.5t-77 -27.5t-83 25.5t-38 86.5z" />
<glyph unicode="&#xe5;" horiz-adv-x="907" d="M74 596q0 98 94 168q152 115 332 115q123 0 188 -58q49 -45 49 -153l4 -324v-98q0 -80 12.5 -112t41.5 -32q49 0 65 33q8 14 21 8l24 -16q14 -8 4 -33q-66 -119 -188 -119q-131 0 -172 125h-8q-68 -74 -179 -110q-47 -14 -131 -15q-59 0 -100 47.5t-41 129.5 q0 168 189 251q225 109 249 127v107q-8 90 -32 115q-29 31 -103 30q-70 0 -119 -37q-12 -10 -14 -22t2 -36.5t4 -41.5q0 -119 -123 -119q-29 0 -49 18.5t-20 51.5zM236 1167q0 76 67.5 124t163.5 48q94 0 154.5 -43t60.5 -108q6 -80 -62.5 -128t-168.5 -48q-94 0 -154.5 44 t-60.5 111zM303 213q0 -59 27.5 -92t66.5 -33q43 2 87 35.5t44 62.5v269q-14 -10 -69.5 -40t-80 -48.5t-50 -59.5t-25.5 -94zM369 1176q0 -47 23.5 -75t66.5 -28q41 0 67.5 27.5t26.5 79.5q0 45 -25.5 69.5t-64.5 24.5q-43 0 -68.5 -27.5t-25.5 -70.5z" />
<glyph unicode="&#xe6;" horiz-adv-x="1341" d="M74 592q0 102 98 172q145 115 315 115q90 0 148 -50q31 -31 43 -65q100 115 276 115q94 0 165 -36t106 -92.5t50 -106.5t15 -93t-45 -47l-502 -27v-47q0 -129 76 -218t195 -89q150 0 221 106q16 27 29 21l30 -19q14 -8 2 -30q-43 -90 -136 -158t-222 -68q-231 0 -336 156 h-12q-88 -104 -201 -137q-61 -18 -151 -19q-66 0 -109 47.5t-43 129.5q0 166 201 260q208 98 245 123v102q0 72 -28 108q-37 37 -111 37q-70 0 -119 -37q-14 -10 -16 -25t3 -42t5 -41q0 -111 -119 -111q-31 0 -52 17.5t-21 48.5zM299 221q0 -129 98 -129q39 0 86 29t80 82 q-31 92 -31 248q-14 -8 -58 -28t-66.5 -33t-52 -37.5t-43 -57.5t-13.5 -74zM748 553l256 18q57 4 57 54q0 74 -30.5 126t-98.5 52q-147 0 -184 -250z" />
<glyph unicode="&#xe7;" horiz-adv-x="860" d="M66 393q0 102 38.5 200.5t112.5 166.5q131 119 299 119q158 0 224.5 -59.5t66.5 -125.5q0 -39 -24.5 -64.5t-65.5 -25.5q-84 0 -123 103q-35 84 -127 84q-68 0 -126 -68t-58 -170q0 -109 14 -177.5t65 -154.5q68 -111 211 -110q121 0 222 77q8 8 18 -2l25 -28 q10 -10 0 -25q-39 -47 -118 -93t-167 -58l-102 -117q68 -14 109.5 -56t41.5 -92q0 -90 -106.5 -145t-245.5 -55q-41 0 -41 41q0 29 65 28q59 0 109.5 30t50.5 81q0 78 -131 102l143 181q-184 10 -282 131q-98 125 -98 282z" />
<glyph unicode="&#xe8;" horiz-adv-x="888" d="M66 424q0 92 19 157.5t81 145.5q66 84 144.5 118t211.5 34q82 0 146.5 -39t97.5 -94.5t49 -106.5t16 -88q0 -20 -13 -26.5t-44 -6.5h-495v-63q0 -147 85 -239.5t181 -92.5q170 0 248 119q10 18 24 10l31 -19q16 -10 0 -40q-121 -217 -373 -218q-199 0 -295 111 q-66 76 -90 154.5t-24 183.5zM233.5 1283q18.5 60 77.5 60q61 0 105 -65l164 -246q6 -6 0 -12l-29 -25q-6 -6 -12 0l-265 185q-59 43 -40.5 103zM285 592h247q68 0 68 29q0 66 -28.5 124t-98.5 58q-147 0 -188 -211z" />
<glyph unicode="&#xe9;" horiz-adv-x="888" d="M66 424q0 92 19 157.5t81 145.5q66 84 144.5 118t211.5 34q82 0 146.5 -39t97.5 -94.5t49 -106.5t16 -88q0 -20 -13 -26.5t-44 -6.5h-495v-63q0 -147 85 -239.5t181 -92.5q170 0 248 119q10 18 24 10l31 -19q16 -10 0 -40q-121 -217 -373 -218q-199 0 -295 111 q-66 76 -90 154.5t-24 183.5zM285 592h247q68 0 68 29q0 66 -28.5 124t-98.5 58q-147 0 -188 -211zM399 1016q-8 8 0 16l166 246q47 68 101 65q39 2 63.5 -27.5t19 -70.5t-46.5 -69l-262 -181q-8 -8 -16 0z" />
<glyph unicode="&#xea;" horiz-adv-x="888" d="M66 424q0 92 19 157.5t81 145.5q66 84 144.5 118t211.5 34q82 0 146.5 -39t97.5 -94.5t49 -106.5t16 -88q0 -20 -13 -26.5t-44 -6.5h-495v-63q0 -147 85 -239.5t181 -92.5q170 0 248 119q10 18 24 10l31 -19q16 -10 0 -40q-121 -217 -373 -218q-199 0 -295 111 q-66 76 -90 154.5t-24 183.5zM236 1020q-8 8 2 20l219 279q16 16 24 16q10 0 25 -20l227 -277q10 -10 2 -18l-16 -16q-4 -10 -17 -5l-225 136l-205 -131q-14 -8 -20 -5zM285 592h247q68 0 68 29q0 66 -28.5 124t-98.5 58q-147 0 -188 -211z" />
<glyph unicode="&#xeb;" horiz-adv-x="888" d="M66 424q0 92 19 157.5t81 145.5q66 84 144.5 118t211.5 34q82 0 146.5 -39t97.5 -94.5t49 -106.5t16 -88q0 -20 -13 -26.5t-44 -6.5h-495v-63q0 -147 85 -239.5t181 -92.5q170 0 248 119q10 18 24 10l31 -19q16 -10 0 -40q-121 -217 -373 -218q-199 0 -295 111 q-66 76 -90 154.5t-24 183.5zM188 1202q0 37 29 74t92 37q45 0 77 -32t32 -87q0 -49 -31 -76.5t-78 -27.5q-45 0 -83 25.5t-38 86.5zM285 592h247q68 0 68 29q0 66 -28.5 124t-98.5 58q-147 0 -188 -211zM553 1202q0 37 28.5 74t92.5 37q45 0 76.5 -32t31.5 -87 q0 -49 -31.5 -76.5t-76.5 -27.5t-83 25.5t-38 86.5z" />
<glyph unicode="&#xec;" horiz-adv-x="555" d="M18.5 1283q18.5 60 77.5 60q61 0 105 -65l164 -246q6 -6 0 -12l-29 -25q-6 -6 -12 0l-265 185q-59 43 -40.5 103zM35 14v39q0 16 20 17h90q33 0 33 41q4 61 4 184v289q0 51 -20.5 80.5t-85.5 46.5q-20 4 -21 18v23q0 10 14.5 16t132 49t134.5 49q31 12 49 13q20 0 16 -25 q-4 -33 -4 -334v-221q0 -152 4 -176q6 -53 33 -53h82q20 0 21 -15v-41q0 -20 -17 -20q-4 0 -37.5 1t-91 3t-119.5 2q-72 0 -145 -4l-76 -2q-16 0 -16 20z" />
<glyph unicode="&#xed;" horiz-adv-x="555" d="M35 14v39q0 16 20 17h90q33 0 33 41q4 61 4 184v289q0 51 -20.5 80.5t-85.5 46.5q-20 4 -21 18v23q0 10 14.5 16t132 49t134.5 49q31 12 49 13q20 0 16 -25q-4 -33 -4 -334v-221q0 -152 4 -176q6 -53 33 -53h82q20 0 21 -15v-41q0 -20 -17 -20q-4 0 -37.5 1t-91 3 t-119.5 2q-72 0 -145 -4l-76 -2q-16 0 -16 20zM172 1016q-8 8 0 16l166 246q47 68 100 65q39 2 63.5 -27.5t19.5 -70.5t-46 -69l-262 -181q-8 -8 -16 0z" />
<glyph unicode="&#xee;" horiz-adv-x="555" d="M18 1020q-8 8 2 20l220 279q16 16 24 16q10 0 25 -20l227 -277q10 -10 2 -18l-16 -16q-4 -10 -17 -5l-225 136l-205 -131q-14 -8 -20 -5zM35 14v39q0 16 20 17h90q33 0 33 41q4 61 4 184v289q0 51 -20.5 80.5t-85.5 46.5q-20 4 -21 18v23q0 10 14.5 16t132 49t134.5 49 q31 12 49 13q20 0 16 -25q-4 -33 -4 -334v-221q0 -152 4 -176q6 -53 33 -53h82q20 0 21 -15v-41q0 -20 -17 -20q-4 0 -37.5 1t-91 3t-119.5 2q-72 0 -145 -4l-76 -2q-16 0 -16 20z" />
<glyph unicode="&#xef;" horiz-adv-x="555" d="M-18 1202q0 37 28.5 74t91.5 37q45 0 77 -32t32 -87q0 -49 -31 -76.5t-78 -27.5q-45 0 -82.5 25.5t-37.5 86.5zM35 14v39q0 16 20 17h90q31 0 33 41q4 123 4 184v289q0 51 -20.5 80.5t-85.5 46.5q-20 4 -21 18v23q0 10 14.5 16t132 49t134.5 49q31 12 49 13q20 0 16 -25 q-4 -33 -4 -334v-221q0 -152 4 -176q6 -53 33 -53h82q20 0 21 -15v-41q0 -20 -17 -20q-4 0 -37.5 1t-91 3t-119.5 2q-72 0 -145 -4l-76 -2q-16 0 -16 20zM346 1202q0 37 28.5 74t92.5 37q45 0 76.5 -32t31.5 -87q0 -49 -31.5 -76.5t-76.5 -27.5t-83 25.5t-38 86.5z" />
<glyph unicode="&#xf0;" horiz-adv-x="1019" d="M66 408q0 92 43 194.5t131 175.5q123 100 288 101q88 0 150 -48l12 9q-51 174 -125 284q-29 45 -59 72l-250 -154q-12 -8 -23 7l-30 49q-10 12 6 20l240 148q-90 92 -216 155q-10 4 -10 13q0 4 4 12l27 49q4 8 10 8q2 0 15 -6q131 -45 299 -162l198 121q14 8 23 -4 l32 -47q10 -16 -4 -25l-184 -106q55 -51 115 -135q164 -233 176 -553q4 -111 -18.5 -214.5t-75 -194.5t-148.5 -146.5t-225 -55.5q-154 0 -250 74q-152 121 -151 359zM287 451q0 -72 21.5 -159t51.5 -136q59 -98 152 -99q100 0 148.5 97.5t48.5 226.5q0 252 -47 328 q-57 88 -146 88q-86 0 -147 -62q-37 -37 -59.5 -114.5t-22.5 -169.5z" />
<glyph unicode="&#xf1;" horiz-adv-x="1124" d="M68 719v16q0 15 20 21l225 106q33 16 41 17q18 0 25 -25l16 -106h13q47 53 102 81q84 49 164 50q121 0 180 -50q63 -47 88 -95t25 -116v-294q0 -37 -1 -109t-1 -88q0 -57 49 -57h57q25 0 25 -15v-47q0 -14 -17 -14q-4 0 -29.5 1l-76.5 3t-115 2q-55 0 -101 -2t-72 -3 t-28 -1q-16 0 -16 24v35q0 16 25 17h41q31 0 36 49q8 72 9 192v236q0 72 -9.5 109.5t-44.5 66.5q-41 37 -123 37q-74 0 -131 -53q-43 -43 -43 -146v-422q0 -70 39 -69h37q20 0 21 -19v-37q0 -20 -17 -20q-2 0 -25.5 1t-67.5 3t-99.5 2t-103.5 -2t-73.5 -3t-27.5 -1 q-12 0 -12 20v39q0 16 20 17h41q53 0 53 41v460q0 76 -86 119l-16 8q-16 6 -16 21zM299 1044q12 84 57 138.5t107 54.5q53 0 151 -33q94 -29 131 -28q53 0 70 61q4 12 12 12h37q14 0 6 -37q-12 -66 -56 -118t-109 -52q-43 0 -152 33q-74 25 -119 25q-27 0 -49.5 -19.5 t-28.5 -60.5q0 -8 -12 -8h-39q-12 0 -6 32z" />
<glyph unicode="&#xf2;" horiz-adv-x="1044" d="M66 440q0 82 43 177.5t129 162.5q120 99 290 99q184 0 310 -121q141 -141 141 -324q0 -170 -127 -311q-131 -147 -344 -148q-209 0 -332 148q-66 76 -88 146.5t-22 170.5zM291 1283q18 60 78 60q61 0 104 -65l164 -246q6 -6 0 -12l-29 -25q-6 -6 -12 0l-264 185 q-59 43 -41 103zM299 434q0 -184 63 -284q56 -89 162 -89q98 0 151.5 107.5t53.5 271.5q0 158 -67.5 257.5t-145.5 99.5q-80 0 -129 -56q-88 -100 -88 -307z" />
<glyph unicode="&#xf3;" horiz-adv-x="1044" d="M66 440q0 82 43 177.5t129 162.5q120 99 290 99q184 0 310 -121q141 -141 141 -324q0 -170 -127 -311q-131 -147 -344 -148q-209 0 -332 148q-66 76 -88 146.5t-22 170.5zM299 434q0 -184 63 -284q56 -89 162 -89q98 0 151.5 107.5t53.5 271.5q0 158 -67.5 257.5 t-145.5 99.5q-80 0 -129 -56q-88 -100 -88 -307zM436 1016q-8 8 0 16l166 246q47 68 100 65q39 2 64 -27.5t19.5 -70.5t-46.5 -69l-262 -181q-8 -8 -16 0z" />
<glyph unicode="&#xf4;" horiz-adv-x="1044" d="M66 440q0 82 43 177.5t129 162.5q120 99 290 99q184 0 310 -121q141 -141 141 -324q0 -170 -127 -311q-131 -147 -344 -148q-209 0 -332 148q-66 76 -88 146.5t-22 170.5zM272 1020q-8 8 2 20l220 279q16 16 24 16q10 0 25 -20l227 -277q10 -10 2 -18l-16 -16 q-4 -10 -17 -5l-225 136l-205 -131q-14 -8 -20 -5zM299 434q0 -184 63 -284q56 -89 162 -89q98 0 151.5 107.5t53.5 271.5q0 158 -67.5 257.5t-145.5 99.5q-80 0 -129 -56q-88 -100 -88 -307z" />
<glyph unicode="&#xf5;" horiz-adv-x="1044" d="M66 440q0 82 43 177.5t129 162.5q120 99 290 99q184 0 310 -121q141 -141 141 -324q0 -170 -127 -311q-131 -147 -344 -148q-209 0 -332 148q-66 76 -88 146.5t-22 170.5zM238 1044q12 84 57 138.5t106 54.5q53 0 152 -33q94 -29 131 -28q53 0 70 61q4 12 12 12h37 q14 0 6 -37q-12 -66 -56 -118t-110 -52q-43 0 -151 33q-74 25 -119 25q-27 0 -49.5 -19.5t-28.5 -60.5q0 -8 -12 -8h-39q-12 0 -6 32zM299 434q0 -184 63 -284q56 -89 162 -89q98 0 151.5 107.5t53.5 271.5q0 158 -67.5 257.5t-145.5 99.5q-80 0 -129 -56q-88 -100 -88 -307 z" />
<glyph unicode="&#xf6;" horiz-adv-x="1044" d="M66 440q0 82 43 177.5t129 162.5q120 99 290 99q184 0 310 -121q141 -141 141 -324q0 -170 -127 -311q-131 -147 -344 -148q-209 0 -332 148q-66 76 -88 146.5t-22 170.5zM225 1202q0 37 29 74t92 37q45 0 77 -32t32 -87q0 -49 -31 -76.5t-78 -27.5q-45 0 -83 25.5 t-38 86.5zM299 434q0 -184 63 -284q56 -89 162 -89q98 0 151.5 107.5t53.5 271.5q0 158 -67.5 257.5t-145.5 99.5q-80 0 -129 -56q-88 -100 -88 -307zM590 1202q0 37 28.5 74t92.5 37q45 0 76.5 -32t31.5 -87q0 -49 -31.5 -76.5t-76.5 -27.5t-83 25.5t-38 86.5z" />
<glyph unicode="&#xf7;" d="M111 432v135h802v-135h-802zM393 180q0 49 35 82t88 33q49 0 84 -33t35 -82t-35 -79.5t-84 -30.5q-53 0 -88 30.5t-35 79.5zM393 819q0 49 35 80t88 31q49 0 84 -31t35 -80t-35 -81.5t-84 -32.5q-55 0 -89 32.5t-34 81.5z" />
<glyph unicode="&#xf8;" horiz-adv-x="1044" d="M66 444q0 80 43 172.5t129 159.5q125 102 290 103q165 -1 267 -95l86 99q10 8 18 0l43 -39q10 -10 2 -21l-86 -90q121 -131 121 -303q0 -170 -127 -311q-127 -143 -344 -144q-170 0 -281 91l-86 -86q-10 -8 -20 2l-35 34q-10 10 0 21l84 88q-57 72 -80.5 141.5 t-23.5 177.5zM295 434q0 -111 16 -170l373 410q-20 51 -69.5 87t-98.5 36q-80 0 -125 -52q-96 -109 -96 -311zM342 180q55 -119 182 -119q94 0 151.5 111t57.5 274q0 87 -12 146z" />
<glyph unicode="&#xf9;" horiz-adv-x="1077" d="M27 801v37q0 16 24 16h246q14 0 30.5 4t22.5 4q20 0 21 -24q0 -6 -2 -41t-4.5 -94.5t-2.5 -120.5v-127q0 -10 -1 -53.5t0 -68t4.5 -62.5t12.5 -68.5t25 -55.5q18 -29 44 -42t39.5 -14t48.5 -1q37 0 77.5 22.5t65.5 55.5q23 33 22 65v482q0 61 -88 69q-41 4 -41 17v37 q0 16 25 16h254q14 0 34.5 4t26.5 4q16 0 17 -20q0 -4 -3 -32t-6.5 -91.5t-3.5 -153.5v-147q0 -197 5 -238q10 -70 45 -69q41 0 65 4q23 2 25 -9l6 -32q2 -14 -10 -19l-254 -71q-25 -8 -41 -9q-27 0 -29 25l-12 115h-13q-35 -57 -113.5 -98.5t-156.5 -41.5q-49 0 -74.5 3.5 t-64.5 24t-72 63.5q-51 66 -63.5 125t-12.5 161q0 55 1 126t1 85q0 123 -4 148q-8 68 -71 73q-45 6 -45 17zM268.5 1283q18.5 60 77.5 60q61 0 105 -65l163 -246q6 -6 0 -12l-28 -25q-6 -6 -13 0l-264 185q-59 43 -40.5 103z" />
<glyph unicode="&#xfa;" horiz-adv-x="1077" d="M27 801v37q0 16 24 16h246q14 0 30.5 4t22.5 4q20 0 21 -24q0 -6 -2 -41t-4.5 -94.5t-2.5 -120.5v-127q0 -10 -1 -53.5t0 -68t4.5 -62.5t12.5 -68.5t25 -55.5q18 -29 44 -42t39.5 -14t48.5 -1q37 0 77.5 22.5t65.5 55.5q23 33 22 65v482q0 61 -88 69q-41 4 -41 17v37 q0 16 25 16h254q14 0 34.5 4t26.5 4q16 0 17 -20q0 -4 -3 -32t-6.5 -91.5t-3.5 -153.5v-147q0 -197 5 -238q10 -70 45 -69q41 0 65 4q23 2 25 -9l6 -32q2 -14 -10 -19l-254 -71q-25 -8 -41 -9q-27 0 -29 25l-12 115h-13q-35 -57 -113.5 -98.5t-156.5 -41.5q-49 0 -74.5 3.5 t-64.5 24t-72 63.5q-51 66 -63.5 125t-12.5 161q0 55 1 126t1 85q0 123 -4 148q-8 68 -71 73q-45 6 -45 17zM453 1016q-8 8 0 16l165 246q47 68 101 65q39 2 63.5 -27.5t19.5 -70.5t-46 -69l-262 -181q-9 -8 -17 0z" />
<glyph unicode="&#xfb;" horiz-adv-x="1077" d="M27 801v37q0 16 24 16h246q14 0 30.5 4t22.5 4q20 0 21 -24q0 -6 -2 -41t-4.5 -94.5t-2.5 -120.5v-127q0 -10 -1 -53.5t0 -68t4.5 -62.5t12.5 -68.5t25 -55.5q18 -29 44 -42t39.5 -14t48.5 -1q37 0 77.5 22.5t65.5 55.5q23 33 22 65v482q0 61 -88 69q-41 4 -41 17v37 q0 16 25 16h254q14 0 34.5 4t26.5 4q16 0 17 -20q0 -4 -3 -32t-6.5 -91.5t-3.5 -153.5v-147q0 -197 5 -238q10 -70 45 -69q41 0 65 4q23 2 25 -9l6 -32q2 -14 -10 -19l-254 -71q-25 -8 -41 -9q-27 0 -29 25l-12 115h-13q-35 -57 -113.5 -98.5t-156.5 -41.5q-49 0 -74.5 3.5 t-64.5 24t-72 63.5q-51 66 -63.5 125t-12.5 161q0 55 1 126t1 85q0 123 -4 148q-8 68 -71 73q-45 6 -45 17zM289 1020q-8 8 2 20l219 279q16 16 25 16q10 0 24 -20l227 -277q10 -10 2 -18l-16 -16q-4 -10 -16 -5l-226 136l-204 -131q-14 -8 -21 -5z" />
<glyph unicode="&#xfc;" horiz-adv-x="1077" d="M27 801v37q0 16 24 16h246q14 0 30.5 4t22.5 4q20 0 21 -24q0 -6 -2 -41t-4.5 -94.5t-2.5 -120.5v-127q0 -10 -1 -53.5t0 -68t4.5 -62.5t12.5 -68.5t25 -55.5q18 -29 44 -42t39.5 -14t48.5 -1q37 0 77.5 22.5t65.5 55.5q23 33 22 65v482q0 61 -88 69q-41 4 -41 17v37 q0 16 25 16h254q14 0 34.5 4t26.5 4q16 0 17 -20q0 -4 -3 -32t-6.5 -91.5t-3.5 -153.5v-147q0 -197 5 -238q10 -70 45 -69q41 0 65 4q23 2 25 -9l6 -32q2 -14 -10 -19l-254 -71q-25 -8 -41 -9q-27 0 -29 25l-12 115h-13q-35 -57 -113.5 -98.5t-156.5 -41.5q-49 0 -74.5 3.5 t-64.5 24t-72 63.5q-51 66 -63.5 125t-12.5 161q0 55 1 126t1 85q0 123 -4 148q-8 68 -71 73q-45 6 -45 17zM242 1202q0 37 28.5 74t91.5 37q45 0 77 -32t32 -87q0 -49 -31 -76.5t-78 -27.5q-45 0 -82.5 25.5t-37.5 86.5zM606 1202q0 37 29 74t92 37q45 0 77 -32t32 -87 q0 -49 -32 -76.5t-77 -27.5t-83 25.5t-38 86.5z" />
<glyph unicode="&#xfd;" horiz-adv-x="897" d="M-31 801v45q0 14 17 14q4 0 27.5 -2t72.5 -3t117 -1q72 0 137 2l68 4q16 0 16 -16v-45q0 -14 -14 -15h-31q-39 0 -31 -43q4 -33 69.5 -252t80.5 -251h8q31 63 106.5 250.5t83.5 218.5q18 78 -43 77h-32q-16 0 -17 15v45q0 16 17 16q2 0 56 -3t120 -3q41 0 88 3t49 3 q14 0 14 -16v-43q0 -16 -12 -17h-25q-47 0 -73 -34q-47 -61 -328 -693q-207 -444 -225 -479q-2 -2 -10.5 -16.5t-11.5 -18.5t-12 -17t-14.5 -18.5t-15.5 -16.5t-18 -16t-20.5 -12.5t-24 -10.5t-27 -6t-31.5 -3q-55 0 -89 30.5t-34 80.5q0 43 29 72.5t70 29.5t90 -25 q33 -16 53 4q18 18 77.5 143.5t78.5 184.5q-8 39 -126 362.5t-138 372.5q-18 45 -37 65.5t-47 20.5h-41q-16 0 -17 17zM485 1016q-8 8 0 16l166 246q47 68 101 65q39 2 63.5 -27.5t19 -70.5t-46.5 -69l-262 -181q-8 -8 -16 0z" />
<glyph unicode="&#xfe;" horiz-adv-x="1069" d="M31 -504q0 16 16 17h66q47 0 51 49q6 90 6 245l-4 1227q0 154 -78 185l-37 12q-16 6 -16 16v21q0 10 16 16q39 10 129 43t121 51q35 20 53 21q20 0 21 -41l-2 -602l8 -4q45 53 118.5 90t149.5 37q162 0 252 -107q53 -63 78 -126.5t25 -170.5q0 -215 -126 -357.5 t-323 -142.5q-96 0 -176 37l4 -377q0 -78 13.5 -100t47.5 -22h66q20 0 20 -17v-39q0 -20 -16 -20q-2 0 -31.5 1t-86 3t-124.5 2q-63 0 -115.5 -2t-79 -3t-30.5 -1q-16 0 -16 24v35zM379 217q0 -86 53 -119q70 -43 156 -43q88 0 145.5 74t57.5 221q0 219 -78 324 q-61 86 -154 86q-110 0 -180 -94v-449z" />
<glyph unicode="&#xff;" horiz-adv-x="897" d="M-31 801v45q0 14 17 14q4 0 27.5 -2t72.5 -3t117 -1q72 0 137 2l68 4q16 0 16 -16v-45q0 -14 -14 -15h-31q-39 0 -31 -43q4 -33 69.5 -252t80.5 -251h8q31 63 106.5 250.5t83.5 218.5q18 78 -43 77h-32q-16 0 -17 15v45q0 16 17 16q2 0 56 -3t120 -3q41 0 88 3t49 3 q14 0 14 -16v-43q0 -16 -12 -17h-25q-47 0 -73 -34q-39 -49 -328 -693q-193 -424 -225 -479q-18 -31 -27.5 -45t-33 -41t-54.5 -38t-70 -11q-55 0 -89 30.5t-34 80.5q0 43 29 72.5t70 29.5t90 -25q33 -16 53 4q18 18 77.5 143.5t78.5 184.5q-8 39 -126 362.5t-138 372.5 q-18 45 -37 65.5t-47 20.5h-41q-16 0 -17 17zM233 1202q0 37 29 74t92 37q45 0 77 -32t32 -87q0 -49 -31 -76.5t-78 -27.5q-45 0 -83 25.5t-38 86.5zM598 1202q0 37 28.5 74t92.5 37q45 0 76.5 -32t31.5 -87q0 -49 -31.5 -76.5t-76.5 -27.5t-83 25.5t-38 86.5z" />
<glyph unicode="&#x152;" horiz-adv-x="2332" d="M106 725q0 272 177 487q113 139 272.5 204t329.5 65q119 0 241 -15q139 -16 193 -16h688q31 0 64 4q29 4 34 4q12 0 17 -12q82 -287 90 -328q4 -16 -4 -20l-29 -17q-14 -8 -24.5 8.5t-101.5 113.5t-120 116q-76 53 -147 53l-324 8l-4 -592q197 0 238 11q66 16 94 73 q33 66 33 115q0 16 16 17l49 -5q18 0 17 -16q-4 -33 -4 -221q0 -90 12 -225q0 -14 -17 -19l-45 -8q-6 -2 -10 2t-6 16q-4 16 -33 103q-33 68 -102 74q-111 12 -242 12v-123q0 -66 4 -203t4 -145q0 -82 16.5 -116t53.5 -44q59 -16 172 -16q90 0 180 8q78 0 156 65 q29 27 95.5 104t96.5 118q12 12 25 4l29 -17q12 -6 12 -16l-102 -311q-16 -31 -41 -31q-55 0 -183 2q-254 4 -678 4q-70 0 -200 -16q-106 -14 -209 -15q-281 0 -483 133q-127 88 -213.5 248t-86.5 375zM385 774q0 -190 51 -336.5t131 -225.5t165 -118t169 -39 q131 0 213 55.5t94 135.5v958q-29 68 -87 112t-114.5 59.5t-113.5 15.5h-19h-27t-30.5 -1t-37 -4.5t-39 -8.5t-43 -13t-42 -19.5t-44 -26.5t-42.5 -36q-88 -84 -136 -222t-48 -286z" />
<glyph unicode="&#x153;" horiz-adv-x="1540" d="M66 434q0 80 39.5 172t123.5 166q123 106 303 107q190 0 308 -148q115 147 315 148q92 0 160.5 -37t102.5 -91.5t50.5 -105.5t16.5 -94q0 -33 -51 -33h-494q-4 -20 -4 -67q0 -152 80 -242t211 -90q143 0 217 123q10 20 24 10l33 -23q14 -8 0 -28q-119 -225 -358 -226 q-223 0 -320 144h-8q-102 -143 -319 -144q-203 0 -322 146q-109 131 -108 313zM299 442q0 -109 13.5 -172t54.5 -123q59 -90 157 -90q90 0 145.5 101.5t55.5 275.5q0 176 -60.5 269.5t-142.5 93.5q-86 0 -139 -62q-84 -96 -84 -293zM944 594h254q59 0 59 37q0 172 -143 172 q-129 0 -170 -209z" />
<glyph unicode="&#x178;" horiz-adv-x="1433" d="M23 1389v55q0 12 16 12q2 0 39 -1t99.5 -3t131.5 -2q92 0 163 2t103.5 3t36.5 1q16 0 17 -14v-47q0 -20 -17 -21h-53q-63 0 -57 -59q2 -16 64.5 -140t141 -274.5t99.5 -191.5q334 551 338 591q8 74 -70 74h-53q-16 0 -16 17v51q0 14 12 14q6 0 39 -1t90 -3t121 -2 q57 0 101 2t66.5 3t28.5 1q16 0 17 -14v-47q0 -20 -17 -21h-45q-66 0 -110 -47q-25 -29 -209.5 -312.5t-241.5 -383.5v-250q0 -168 6 -236q4 -45 23.5 -57t56.5 -12h68q14 0 14 -15v-47q0 -20 -14 -20q-4 0 -39 1t-101.5 3t-148.5 2q-88 0 -154.5 -2t-97.5 -3t-33 -1 q-14 0 -14 18v47q0 16 14 17h84q68 0 72 51q6 86 6 381v98q-47 88 -216 382t-206 341q-39 45 -102 45h-37q-16 0 -16 15zM483 1733q0 35 31 70.5t96 35.5q43 0 75 -30.5t32 -84.5q0 -49 -32 -81.5t-75 -32.5q-47 0 -87 28.5t-40 94.5zM918 1733q0 35 30.5 70.5t95.5 35.5 q43 0 77 -30.5t34 -84.5q0 -49 -33 -81.5t-78 -32.5q-47 0 -86.5 28.5t-39.5 94.5z" />
<glyph unicode="&#x2c6;" horiz-adv-x="630" d="M66 1020q-8 8 2 20l219 279q16 16 24 16q10 0 25 -20l227 -277q10 -10 2 -18l-16 -16q-4 -10 -17 -5l-225 136l-205 -131q-14 -8 -20 -5z" />
<glyph unicode="&#x2dc;" horiz-adv-x="700" d="M66 1044q12 84 57 138.5t106 54.5q53 0 152 -33q94 -29 131 -28q53 0 70 61q4 12 12 12h37q14 0 6 -37q-12 -66 -56 -118t-110 -52q-43 0 -152 33q-74 25 -118 25q-27 0 -49.5 -19.5t-28.5 -60.5q0 -8 -12 -8h-39q-12 0 -6 32z" />
<glyph unicode="&#x2000;" horiz-adv-x="962" />
<glyph unicode="&#x2001;" horiz-adv-x="1925" />
<glyph unicode="&#x2002;" horiz-adv-x="962" />
<glyph unicode="&#x2003;" horiz-adv-x="1925" />
<glyph unicode="&#x2004;" horiz-adv-x="641" />
<glyph unicode="&#x2005;" horiz-adv-x="481" />
<glyph unicode="&#x2006;" horiz-adv-x="320" />
<glyph unicode="&#x2007;" horiz-adv-x="320" />
<glyph unicode="&#x2008;" horiz-adv-x="240" />
<glyph unicode="&#x2009;" horiz-adv-x="385" />
<glyph unicode="&#x200a;" horiz-adv-x="106" />
<glyph unicode="&#x2010;" horiz-adv-x="823" d="M102 494v106q0 16 17 16h573q25 0 25 -20v-96q0 -18 -25 -19h-573q-16 0 -17 13z" />
<glyph unicode="&#x2011;" horiz-adv-x="823" d="M102 494v106q0 16 17 16h573q25 0 25 -20v-96q0 -18 -25 -19h-573q-16 0 -17 13z" />
<glyph unicode="&#x2012;" horiz-adv-x="823" d="M102 494v106q0 16 17 16h573q25 0 25 -20v-96q0 -18 -25 -19h-573q-16 0 -17 13z" />
<glyph unicode="&#x2013;" d="M0 481v135h1024v-135h-1024z" />
<glyph unicode="&#x2014;" horiz-adv-x="2048" d="M0 481v135h2048v-135h-2048z" />
<glyph unicode="&#x2018;" horiz-adv-x="401" d="M41 1104q0 72 28.5 138.5t71.5 112.5t71 68.5t50 36.5q41 20 49 21q20 0 21 -17q0 -18 -21 -32q-37 -33 -75.5 -96.5t-38.5 -129.5q0 -47 28 -61q2 0 10.5 -3t14.5 -6t17.5 -9.5t19.5 -11.5t17 -15t14.5 -21.5t9.5 -27t4 -33.5q0 -45 -32 -76t-83 -31q-68 0 -122 53.5 t-54 139.5z" />
<glyph unicode="&#x2019;" horiz-adv-x="401" d="M70 928q0 18 20 28q35 31 75 97.5t40 132.5q0 51 -29 57l-24 10q-23 12 -37.5 22.5t-29.5 37t-15 61.5q0 45 31.5 76t82.5 31q68 0 122 -53.5t54 -143.5q0 -92 -51 -177t-96 -123t-74 -52q-27 -20 -49 -21q-20 0 -20 17z" />
<glyph unicode="&#x201a;" horiz-adv-x="401" d="M70 143q0 41 31.5 72t82.5 31q68 0 122 -51.5t54 -141.5q0 -92 -51 -177t-96 -123t-74 -52q-27 -20 -49 -20q-20 0 -20 16q0 18 16 29q37 29 78 96t41 133q0 49 -29 57l-24 13q-23 10 -37.5 20t-29.5 37t-15 61z" />
<glyph unicode="&#x201c;" horiz-adv-x="782" d="M57 1104q0 72 29 138.5t72 112.5t70.5 68.5t50.5 36.5q41 20 49 21q20 0 20 -17q0 -12 -20 -32q-39 -33 -79 -98t-40 -128q0 -45 33 -61q2 0 13 -5t20.5 -9.5t23.5 -15.5t22.5 -22.5t15.5 -32t7 -42.5q0 -45 -29.5 -76t-81.5 -31q-68 0 -122 53.5t-54 139.5zM418 1104 q0 72 28.5 138.5t73.5 112.5t71.5 68.5t51.5 36.5q41 20 49 21q20 0 21 -17q0 -12 -21 -32q-39 -33 -79 -98t-40 -128q0 -45 33 -61q2 0 13.5 -5t21.5 -9.5t24.5 -15.5t23.5 -22.5t16.5 -32t7.5 -42.5q0 -43 -33 -75t-82 -32q-68 0 -124 53.5t-56 139.5z" />
<glyph unicode="&#x201d;" horiz-adv-x="782" d="M70 928q0 18 16 28q37 29 78 96.5t41 133.5q0 51 -29 57l-24 10q-23 12 -37.5 22.5t-29.5 37t-15 61.5q0 45 31.5 76t82.5 31q68 0 122 -53.5t54 -143.5q0 -92 -51 -177t-96 -123t-74 -52q-27 -20 -49 -21q-20 0 -20 17zM434 928q0 14 21 28q37 29 77.5 96.5t40.5 133.5 q0 49 -32 57q-2 2 -22.5 11.5t-36 20.5t-30 37.5t-14.5 61.5q0 43 31 75t80 32q68 0 124 -53.5t56 -143.5q0 -72 -29.5 -138.5t-71.5 -110.5t-74 -68.5t-50 -34.5q-27 -20 -49 -21q-20 0 -21 17z" />
<glyph unicode="&#x201e;" horiz-adv-x="782" d="M70 143q0 41 31.5 72t82.5 31q68 0 122 -51.5t54 -141.5q0 -92 -51 -177t-96 -123t-74 -52q-27 -20 -49 -20q-20 0 -20 16q0 18 16 29q37 29 78 96t41 133q0 49 -29 57l-24 13q-23 10 -37.5 20t-29.5 37t-15 61zM434 -303q0 14 21 29q37 29 77.5 96t40.5 133q0 49 -32 57 q-2 2 -22.5 11.5t-36 20.5t-30 38t-14.5 61q0 41 32 72t79 31q68 0 124 -52.5t56 -140.5q0 -72 -29.5 -138.5t-71.5 -110.5t-74 -68.5t-50 -34.5q-27 -20 -49 -20q-20 0 -21 16z" />
<glyph unicode="&#x2022;" horiz-adv-x="696" d="M82 737q0 119 78 193t188 74q113 0 189.5 -73t76.5 -194q0 -113 -77.5 -181.5t-188.5 -68.5q-104 0 -185 71t-81 179z" />
<glyph unicode="&#x2026;" horiz-adv-x="2048" d="M199 119q0 47 36.5 91t108.5 44q59 0 100 -39t41 -104q0 -59 -38.5 -97.5t-98 -38.5t-104.5 38t-45 106zM881 119q0 47 36.5 91t110.5 44q59 0 99 -39t40 -104q0 -61 -39 -98.5t-100 -37.5q-57 0 -102 39t-45 105zM1563 119q0 47 36.5 91t110.5 44q57 0 98 -39t41 -104 q0 -59 -39 -97.5t-96 -38.5q-59 0 -105 38t-46 106z" />
<glyph unicode="&#x202f;" horiz-adv-x="385" />
<glyph unicode="&#x2039;" horiz-adv-x="536" d="M57 434q0 8 13 21l319 311q8 8 12.5 8t8.5 -4l41 -33q4 -4 4 -8q0 -2 -2 -6t-2 -6l-168 -283l168 -282q4 -4 4 -12.5t-4 -8.5l-41 -33l-9 -4l-16 8l-315 316q-12 6 -13 16z" />
<glyph unicode="&#x203a;" horiz-adv-x="536" d="M82 139q0 4 8 13l164 282l-168 283q-4 4 -4 12t4 8l45 33q0 4 8 4q4 0 13 -8l319 -315q12 -6 12 -17q0 -4 -16 -20l-315 -312q-8 -8 -12.5 -8t-12.5 8l-41 29q0 2 -2 4t-2 4z" />
<glyph unicode="&#x205f;" horiz-adv-x="481" />
<glyph unicode="&#x20ac;" d="M29 532l16 54q6 12 12 12h109q0 12 -1 43t-1 43q0 39 4 96h-115q-16 0 -12 13l16 53q4 12 13 12h106q23 172 113 326q127 215 354 215q51 0 97 -17.5t65.5 -32t52.5 -42.5q31 -31 35 0l10 47q4 12 28.5 12t24.5 -33q0 -90 19 -274q0 -2 1 -8.5t1 -11.5t-1 -10t-3 -8 t-8 -5l-23 -6q-10 -4 -15 2t-14 30q-51 150 -104 212.5t-160 62.5q-207 0 -239 -459h442q8 0 13 -4t3 -8l-16 -53q-4 -12 -16 -13h-430v-96q0 -12 1 -43t1 -43h364q23 0 19 -12l-17 -54q-8 -12 -16 -12h-346q10 -236 71.5 -352.5t157.5 -116.5q125 0 185.5 74t93.5 217 q6 23 20 18l23 -6q14 -4 14 -28q-20 -266 -21 -293q0 -23 -5 -28t-19 -5q-25 0 -29 12l-8 49q-6 25 -35 2q-119 -94 -221 -94q-223 0 -350 215q-86 143 -115 336h-133q-16 0 -12 12z" />
<glyph unicode="&#x2122;" horiz-adv-x="1863" d="M10 1274q37 174 39 192q2 16 14 17q8 0 17 -8q25 -25 76 -25q25 0 95.5 -2t117.5 -2q41 0 122.5 2t110.5 2q49 0 74 25q8 8 16 8q12 0 13 -17q0 -4 5 -40.5t10 -83t9 -70.5q0 -12 -8 -15l-25 -8q-8 -2 -16 13q-43 86 -86 110q-37 17 -139 17v-271v-303q6 -41 37 -41h45 q12 0 12 -12v-37q0 -12 -14 -12l-64 2q-66 2 -102 2q-33 0 -101 -2l-67 -2q-12 0 -13 8v41q0 12 11 12h51q37 0 37 62v553q-90 0 -127 -13q-49 -16 -99 -114q-10 -14 -16 -13l-29 8q-10 4 -6 17zM762 725v37q0 12 10 12h23q27 0 46 20.5t23 49.5q12 117 13 332v163 q0 57 -58 58h-24q-12 0 -13 10v35q0 12 13 12q2 0 23.5 -1t50 -2t49.5 -1q37 0 89 2t62 2q29 0 37 -20l176 -451l184 451q10 16 33 16h240q14 0 14 -8v-33q0 -12 -12 -12h-17q-41 0 -41 -45q0 -8 -2 -134t-2 -136.5t2 -125t2 -125.5q0 -57 37 -57h39q10 0 10 -12v-37 q0 -12 -10 -12q-2 0 -63.5 2t-98.5 2q-33 0 -96 -2l-63 -2q-12 0 -13 12v37q0 12 11 12h39q37 0 45 37v258v291h-9l-254 -602q-10 -25 -28.5 -25t-28.5 17l-242 606h-12v-254q0 -201 4 -246q6 -82 66 -82h22q10 0 11 -14v-35q0 -12 -11 -12q-2 0 -53 1t-76 1q-27 0 -78 -1 t-55 -1q-14 0 -14 12z" />
</font>
</defs>
</svg>
